<?xml version="1.0" standalone="no"?>
<!DOCTYPE svg PUBLIC "-//W3C//DTD SVG 1.1//EN" "http://www.w3.org/Graphics/SVG/1.1/DTD/svg11.dtd">
<svg xmlns="http://www.w3.org/2000/svg">
<defs >
<font id="Mukta" horiz-adv-x="664" ><font-face
    font-family="Mukta"
    units-per-em="1000"
    panose-1="2 11 0 0 0 0 0 0 0 0"
    ascent="1130"
    descent="-532"
    alphabetic="0" />
<glyph unicode=" " glyph-name="space" horiz-adv-x="222" />
<glyph unicode="!" glyph-name="exclam" horiz-adv-x="247" d="M77 710H171L159 209H87L77 710ZM63 54Q63 80 81 98T124 116Q149 116 166 98T184 54Q184 25 167 8T124 -9Q99 -9 81 8T63 54Z" />
<glyph unicode="&quot;" glyph-name="quotedbl" horiz-adv-x="324" d="M190 645H273L257 428H205L190 645ZM51 645H134L119 428H67L51 645Z" />
<glyph unicode="#" glyph-name="numbersign" horiz-adv-x="620" d="M260 469L230 282H376L406 469H260ZM450 740H517L484 537H586V469H474L443 282H552V214H434L399 0H331L365 214H220L185 0H118L151 214H35V282H163L193 469H70V537H205L237 740H304L271 536H418L450
740Z" />
<glyph unicode="$" glyph-name="dollar" horiz-adv-x="530" d="M233 720H298V617Q359 612 423 582L397 514Q361 533 329 541T265 549Q216 549 185 527T154 460Q154 419 182 400T256 366L302 351Q379 326 418 286T458 181Q458 143 444 114T407 63T351 28T283 11V-94H218V11Q175
13 141 23T68 53L100 121Q142 97 181 89T250 80Q275 80 296 85T334 102T360 132T370 174Q370 216 341 238T254 278L208 293Q176 303 150 316T106 349T77 392T66 449Q66 525 111 568T233 618V720Z" />
<glyph unicode="%" glyph-name="percent" horiz-adv-x="820" d="M165 0L602 750H667L230 0H165ZM789 178Q789 140 779 106T747 47T695 6T624 -9Q585 -9 555 6T504 46T473 106T462 178Q462 216 473 249T505 308T557 349T627 364Q666 364 696 349T747 309T778 250T789
178ZM717 178Q717 204 713 228T698 271T670 301T627 312Q603 312 585 301T556 272T540 230T534 178Q534 151 539 127T554 84T582 54T624 43Q672 43 694 80T717 178ZM357 564Q357 526 347 492T315 433T263 392T192 377Q153 377 123 392T72 432T41 492T30 564Q30
602 41 635T73 694T125 735T195 750Q234 750 264 735T315 695T346 636T357 564ZM285 564Q285 590 281 614T266 657T238 687T195 698Q171 698 153 687T124 658T108 616T102 564Q102 537 107 513T122 470T150 440T192 429Q240 429 262 466T285 564Z" />
<glyph unicode="&amp;" glyph-name="ampersand" horiz-adv-x="658" d="M30 186Q30 223 42 253T76 307T125 349T185 380Q159 409 140 446T120 529Q120 562 133 588T168 632T221 660T286 670Q320 670 349 660T400 632T434 587T446 530Q446 477 419 442T348 385L307
434Q333 448 348 471T364 525Q364 560 342 582T284 604Q246 604 225 583T204 528Q204 483 229 446T301 361L469 191Q486 217 501 251T527 318L599 289Q583 244 563 205T523 136L658 0H550L474 78Q460 62 440 47T392 19T332 0T258 -8Q206 -8 164 6T92 47T46 108T30
186ZM116 188Q116 125 157 93T268 60Q289 60 311 65T355 79T393 102T423 131L227 330Q205 319 185 305T150 274T125 235T116 188Z" />
<glyph unicode="&apos;" glyph-name="quotesingle" horiz-adv-x="185" d="M51 645H134L118 428H66L51 645Z" />
<glyph unicode="(" glyph-name="parenleft" horiz-adv-x="301" d="M211 -153Q181 -112 152 -66T101 34T64 147T50 279Q50 349 64 411T102 528T154 628T213 710L261 676Q206 592 172 495T137 279Q137 220 145 168T169 67T208 -29T261 -124L211 -153Z" />
<glyph unicode=")" glyph-name="parenright" horiz-adv-x="301" d="M90 710Q120 669 149 623T200 523T237 409T251 278Q251 208 237 146T199 29T147 -71T88 -153L40 -119Q95 -35 129 62T164 278Q164 337 156 389T132 490T93 586T40 681L90 710Z" />
<glyph unicode="*" glyph-name="asterisk" horiz-adv-x="342" d="M57 412L96 464L153 517L75 527L14 546L32 601L92 583L164 545L146 622V684H206V622L189 545L260 583L320 601L338 546L277 527L199 517L256 464L294 412L246 377L209 429L176 500L143 429L104
377L57 412Z" />
<glyph unicode="+" glyph-name="plus" horiz-adv-x="562" d="M522 338V274H313V65H249V274H40V338H249V547H313V338H522Z" />
<glyph unicode="," glyph-name="comma" horiz-adv-x="214" d="M101 -9Q75 -6 62 13T49 55Q49 79 65 98T112 117Q124 117 136 114T159 100T177 71T184 22Q184 -32 153 -77T74 -148L45 -108Q71 -94 91 -71T119 -12L101 -9Z" />
<glyph unicode="-" glyph-name="hyphen" horiz-adv-x="280" d="M250 333V254H30V333H250Z" />
<glyph unicode="." glyph-name="period" horiz-adv-x="211" d="M54 54Q54 80 72 98T115 116Q140 116 157 98T175 54Q175 25 158 8T115 -9Q90 -9 72 8T54 54Z" />
<glyph unicode="/" glyph-name="slash" horiz-adv-x="375" d="M-1 -109L303 750H378L74 -109H-1Z" />
<glyph unicode="0" glyph-name="zero" horiz-adv-x="575" d="M288 639Q340 639 385 621T463 563T514 463T533 315Q533 229 513 168T459 67T381 10T288 -9Q235 -9 191 9T113 67T62 167T43 315Q43 397 63 458T116 559T194 619T288 639ZM135 315Q135 236 148 187T182
109T231 71T289 60Q319 60 346 71T395 112T428 191T441 315Q441 393 428 443T394 521T345 559T287 570Q257 570 230 559T181 518T148 439T135 315Z" />
<glyph unicode="1" glyph-name="one" horiz-adv-x="364" d="M210 630H274V0H188V538L75 486L55 559L210 630Z" />
<glyph unicode="2" glyph-name="two" horiz-adv-x="483" d="M224 567Q192 567 163 556T99 518L60 577Q105 615 145 627T224 639Q276 639 313 625T376 585T413 526T425 452Q425 416 410 379T368 302T301 220T213 130L154 73H440V0H61L45 63L128 146Q183 201 222
244T287 323T323 389T335 449Q335 500 308 533T224 567Z" />
<glyph unicode="3" glyph-name="three" horiz-adv-x="490" d="M53 592Q92 618 134 628T214 639Q256 639 291 627T352 594T391 543T405 478Q405 419 375 380T300 325Q355 313 391 273T427 175Q427 124 407 89T355 33T283 1T200 -9Q158 -9 116 -1T42 22L62 90Q79
84 94 79T125 70T158 64T199 62Q224 62 248 68T292 88T323 123T335 177Q335 205 325 226T296 260T252 279T197 286H122V354H180Q238 354 276 382T315 468Q315 489 307 507T284 539T250 561T207 569Q175 569 147 561T81 531L53 592Z" />
<glyph unicode="4" glyph-name="four" horiz-adv-x="536" d="M323 630H402V233H501V160H402V0H320V160H20V215L323 630ZM119 233H320V407L325 533H323L274 448L119 233Z" />
<glyph unicode="5" glyph-name="five" horiz-adv-x="517" d="M427 632V559L194 557L175 391Q187 393 202 394T234 396Q271 396 309 386T379 354T430 295T450 205Q450 160 434 121T387 53T309 8T201 -9Q166 -9 129 -1T63 21L83 92Q107 80 137 72T199 64Q275 64
316 98T358 202Q358 235 347 259T315 300T266 324T205 332Q178 332 150 329T93 319L124 630L427 632Z" />
<glyph unicode="6" glyph-name="six" horiz-adv-x="524" d="M315 639Q383 639 436 619L415 548Q394 557 370 562T318 568Q274 568 241 552T186 506T151 436T137 346Q165 381 204 397T286 414Q328 414 365 401T429 361T473 296T489 209Q489 159 473 119T427 51T357
7T269 -9Q226 -9 186 7T115 60T64 152T45 289Q45 386 67 452T127 560T213 620T315 639ZM137 230Q137 194 146 163T174 109T217 73T272 59Q301 59 324 70T365 101T391 148T401 207Q401 278 365 311T269 344Q224 344 194 323T147 274Q141 263 139 252T137 230Z" />
<glyph unicode="7" glyph-name="seven" horiz-adv-x="495" d="M449 630V568L177 -18L102 15L361 557H57V630H449Z" />
<glyph unicode="8" glyph-name="eight" horiz-adv-x="505" d="M254 639Q303 639 339 626T401 591T438 541T451 482Q451 437 422 397T331 333Q400 304 433 267T467 170Q467 126 451 93T407 37T339 3T254 -9Q209 -9 170 3T101 37T55 90T38 162Q38 223 69 260T168
326Q117 349 88 386T59 473Q59 506 71 536T107 589T168 625T254 639ZM142 478Q142 455 151 437T176 406T213 382T257 363Q280 372 300 383T335 408T358 440T367 480Q367 501 358 518T334 547T298 566T254 573Q226 573 205 565T170 544T149 514T142 478ZM246 294Q193
277 160 248T127 165Q127 123 158 91T254 59Q283 59 306 67T346 91T370 125T379 165Q379 190 369 210T341 246T299 274T246 294Z" />
<glyph unicode="9" glyph-name="nine" horiz-adv-x="517" d="M206 -9Q161 -9 130 -3T75 15L96 86Q117 77 140 70T203 62Q291 62 334 117T380 279Q355 250 317 233T236 216Q194 216 158 229T95 269T53 334T38 421Q38 470 54 510T99 579T167 623T255 639Q298 639
337 623T406 570T454 478T472 341Q472 244 452 178T396 70T312 10T206 -9ZM380 392Q380 428 371 460T344 517T302 556T247 571Q189 571 158 532T126 428Q126 357 160 322T254 286Q296 286 325 304T370 351Q376 362 378 371T380 392Z" />
<glyph unicode=":" glyph-name="colon" horiz-adv-x="223" d="M51 54Q51 80 69 98T112 116Q137 116 154 98T172 54Q172 25 155 8T112 -9Q87 -9 69 8T51 54ZM51 355Q51 381 69 399T112 417Q137 417 154 399T172 355Q172 326 155 309T112 292Q87 292 69 309T51 355Z" />
<glyph unicode=";" glyph-name="semicolon" horiz-adv-x="219" d="M53 355Q53 381 71 399T114 417Q139 417 156 399T174 355Q174 326 157 309T114 292Q89 292 71 309T53 355ZM101 -9Q75 -6 62 13T49 55Q49 79 65 98T112 117Q124 117 136 114T159 100T177 71T184
22Q184 -32 153 -77T74 -148L45 -108Q71 -94 91 -71T119 -12L101 -9Z" />
<glyph unicode="&lt;" glyph-name="less" horiz-adv-x="496" d="M66 225V283L430 493V421L131 254L430 87V15L66 225Z" />
<glyph unicode="=" glyph-name="equal" horiz-adv-x="463" d="M423 253V190H40V253H423ZM423 422V359H40V422H423Z" />
<glyph unicode="&gt;" glyph-name="greater" horiz-adv-x="496" d="M66 87L365 254L66 421V493L430 283V225L66 15V87Z" />
<glyph unicode="?" glyph-name="question" horiz-adv-x="437" d="M200 715Q245 715 280 703T341 668T379 614T392 547Q392 521 384 498T361 452T328 411T292 374Q251 337 228 309T205 246Q205 232 207 221T214 194L139 180Q126 212 126 247Q126 269 131 288T148
325T175 363T213 404Q231 422 247 438T275 471T294 506T302 546Q302 564 297 580T279 610T246 631T195 639Q172 639 147 633T96 608L58 674Q87 695 126 705T200 715ZM124 54Q124 80 142 98T185 116Q210 116 227 98T245 54Q245 25 228 8T185 -9Q160 -9 142 8T124
54Z" />
<glyph unicode="@" glyph-name="at" horiz-adv-x="965" d="M564 62H562Q545 45 529 32T493 9T453 -4T403 -9Q342 -9 306 24T270 112Q270 155 288 186T336 238T407 267T493 277H583L590 317Q591 324 591 330T592 342Q592 378 570 391T510 405Q486 405 449 397T365
364L341 428Q392 453 436 465T527 477Q561 477 589 471T637 449T669 410T680 349Q680 330 677 306L651 146Q645 114 645 96Q645 76 652 68T676 60Q706 60 734 79T783 133T818 218T832 329Q832 392 813 446T756 539T664 602T540 625Q440 625 364 590T237 493T160
350T134 173Q134 82 163 21T240 -79T347 -133T466 -150Q530 -150 575 -139T660 -111L678 -173Q636 -191 578 -205T450 -219Q376 -219 305 -198T177 -131T87 -11T52 169Q52 291 91 388T196 552T351 656T536 692Q628 692 699 665T818 589T892 476T917 333Q917 246
893 183T831 79T748 19T659 -1Q633 -1 613 2T582 11L564 62ZM575 217L500 215Q424 213 394 186T363 119Q363 87 384 72T437 56Q503 56 560 121L575 217Z" />
<glyph unicode="A" glyph-name="A" horiz-adv-x="590" d="M256 630H338L589 0H493L424 175H165L97 0H2L256 630ZM190 248H397L355 357Q338 400 324 440T296 522H294Q280 480 265 441T233 357L190 248Z" />
<glyph unicode="B" glyph-name="B" horiz-adv-x="537" d="M269 630Q363 630 415 590T468 471Q468 413 436 381T354 335Q382 330 406 318T448 285T476 238T487 176Q487 137 470 105T423 49T352 13T262 0H80V630H269ZM172 367H247Q272 367 295 371T335 386T363 415T374
464Q374 512 342 534T255 556H172V367ZM172 74H252Q280 74 305 79T349 98T379 132T391 185Q391 216 378 236T342 270T292 288T236 294H172V74Z" />
<glyph unicode="C" glyph-name="C" horiz-adv-x="559" d="M355 67Q405 67 437 75T502 98L523 24Q488 7 447 -1T345 -9Q283 -9 228 12T133 74T69 175T45 315Q45 392 68 452T131 554T228 617T350 639Q412 639 452 629T526 602L504 530Q485 538 469 544T436 555T402
561T362 563Q318 563 279 550T210 506T163 429T145 314Q145 246 162 199T207 123T274 81T355 67Z" />
<glyph unicode="D" glyph-name="D" horiz-adv-x="642" d="M285 630Q352 630 409 611T507 555T572 461T596 329Q596 238 568 175T493 73T383 17T250 0H80V630H285ZM172 76H241Q289 76 335 86T416 125T474 203T496 329Q496 383 480 425T434 495T362 539T267 554H172V76Z" />
<glyph unicode="E" glyph-name="E" horiz-adv-x="501" d="M80 630H460V554H172V365H434V290H172V76H463V0H80V630Z" />
<glyph unicode="F" glyph-name="F" horiz-adv-x="485" d="M450 630V554H172V350H428V275H172V0H80V630H450Z" />
<glyph unicode="G" glyph-name="G" horiz-adv-x="618" d="M355 639Q410 639 454 631T537 603L515 531Q478 548 443 556T366 564Q322 564 282 551T212 509T163 432T145 314Q145 193 200 130T355 67Q393 67 420 71T474 85V260H355V332H560V28Q520 12 471 2T355 -9Q290
-9 234 12T135 74T69 175T45 314Q45 393 68 454T133 556T231 618T355 639Z" />
<glyph unicode="H" glyph-name="H" horiz-adv-x="642" d="M80 0V630H172V365H471V630H563V0H471V287H172V0H80Z" />
<glyph unicode="I" glyph-name="I" horiz-adv-x="251" d="M172 630V0H80V630H172Z" />
<glyph unicode="J" glyph-name="J" horiz-adv-x="269" d="M197 630V115Q197 45 191 0T159 -79Q129 -121 81 -137T-15 -155V-80Q44 -79 76 -43Q94 -23 99 6T105 67V630H197Z" />
<glyph unicode="K" glyph-name="K" horiz-adv-x="576" d="M80 0V630H172V345L437 630H551L291 351L571 0H455L225 288L172 231V0H80Z" />
<glyph unicode="L" glyph-name="L" horiz-adv-x="456" d="M80 630H172V78H441V0H80V630Z" />
<glyph unicode="M" glyph-name="M" horiz-adv-x="811" d="M117 630H237L369 228Q379 199 388 172T405 116H407Q415 144 423 170T443 228L572 630H692L747 0H655L629 334Q625 383 623 431T619 530H617Q603 481 589 432T558 334L447 0H363L252 335Q235 386 221 432T193
530H191Q189 481 186 432T178 334L154 0H64L117 630Z" />
<glyph unicode="N" glyph-name="N" horiz-adv-x="672" d="M80 630H160L447 231Q463 209 478 186T505 141H507Q505 176 504 211T503 281V630H593V0H513L229 394Q214 415 198 441T168 494H166Q168 452 169 410T170 326V0H80V630Z" />
<glyph unicode="O" glyph-name="O" horiz-adv-x="686" d="M345 639Q409 639 463 619T556 558T618 457T640 315Q640 236 617 176T554 74T460 12T341 -9Q277 -9 223 11T130 72T68 173T46 315Q46 394 69 454T132 556T226 618T345 639ZM146 315Q146 251 161 204T204
126T267 80T345 65Q386 65 421 80T483 126T525 204T540 315Q540 381 525 428T482 505T419 550T341 565Q300 565 264 550T202 504T161 426T146 315Z" />
<glyph unicode="P" glyph-name="P" horiz-adv-x="523" d="M80 630H278Q327 630 367 618T436 581T481 521T497 439Q497 389 480 353T432 292T359 256T266 244H172V0H80V630ZM172 319H229Q266 319 298 324T352 342T388 378T401 438Q401 471 389 493T356 530T310
550T257 556H172V319Z" />
<glyph unicode="Q" glyph-name="Q" horiz-adv-x="682" d="M345 639Q409 639 463 619T556 558T618 457T640 315Q640 210 597 136T458 8L322 -68Q352 -68 377 -75T429 -92T483 -108T545 -116Q565 -116 587 -110T630 -89L666 -156Q638 -174 605 -183T542 -192Q507
-192 473 -183T404 -162T337 -141T271 -131Q245 -131 220 -139T168 -162L130 -93L284 -4Q231 4 188 28T113 92T64 188T46 315Q46 394 69 454T132 556T226 618T345 639ZM146 315Q146 251 160 204T199 124T260 76T336 60Q377 60 414 76T479 125T523 205T540 315Q540
381 525 428T482 505T419 550T341 565Q300 565 264 550T202 504T161 426T146 315Z" />
<glyph unicode="R" glyph-name="R" horiz-adv-x="537" d="M80 630H285Q334 630 371 616T434 577T472 518T485 442Q485 406 474 377T445 327T404 290T356 264L522 0H419L270 247H167V0H80V630ZM167 322H243Q274 322 300 328T346 348T377 384T389 437Q389 498 356
527T258 556H167V322Z" />
<glyph unicode="S" glyph-name="S" horiz-adv-x="505" d="M257 639Q303 639 346 632T431 604L409 528Q366 548 332 556T261 565Q204 565 171 540T138 470Q138 432 162 409T243 369L306 349Q392 322 427 276T463 171Q463 130 447 97T401 40T331 4T243 -9Q195 -9
146 -1T47 31L69 106Q112 85 153 75T239 65Q293 65 331 90T369 164Q369 182 364 197T345 227T308 253T250 276L187 296Q118 318 81 356T44 459Q44 542 98 590T257 639Z" />
<glyph unicode="T" glyph-name="T" horiz-adv-x="501" d="M492 630V552H295V0H203V552H10V630H492Z" />
<glyph unicode="U" glyph-name="U" horiz-adv-x="640" d="M72 630H164V253Q164 152 201 109T320 66Q401 66 438 114T476 241V630H568V244Q568 115 502 53T320 -9Q203 -9 138 52T72 249V630Z" />
<glyph unicode="V" glyph-name="V" horiz-adv-x="574" d="M94 630L225 274Q239 237 255 193T286 110H288L348 274L481 630H577L329 0H240L-3 630H94Z" />
<glyph unicode="W" glyph-name="W" horiz-adv-x="859" d="M102 630L209 259Q213 247 217 229T227 190T236 149T242 110H244Q247 128 251 148T261 189T270 228T279 259L389 630H471L585 259Q589 246 593 228T602 190T611 149T619 110H621Q624 129 628 150T638 191T647
229T655 259L758 630H851L666 0H573L477 335Q470 360 464 382T452 424T441 464T429 508H427Q417 463 405 418T382 335L289 0H197L8 630H102Z" />
<glyph unicode="X" glyph-name="X" horiz-adv-x="545" d="M120 630L271 384L429 630H530L323 320L540 0H434L271 256L107 0H6L216 320L15 630H120Z" />
<glyph unicode="Y" glyph-name="Y" horiz-adv-x="523" d="M111 630L268 348L426 630H523L310 264V0H218V264L10 630H111Z" />
<glyph unicode="Z" glyph-name="Z" horiz-adv-x="511" d="M481 630V575L135 74H486V0H26V65L366 556H41V630H481Z" />
<glyph unicode="[" glyph-name="bracketleft" horiz-adv-x="301" d="M81 -155V720H271V654H167V-88H271V-155H81Z" />
<glyph unicode="\" glyph-name="backslash" horiz-adv-x="331" d="M256 -88L0 720H75L331 -88H256Z" />
<glyph unicode="]" glyph-name="bracketright" horiz-adv-x="301" d="M30 -155V-88H134V654H30V720H220V-155H30Z" />
<glyph unicode="^" glyph-name="asciicircum" horiz-adv-x="516" d="M456 416H380L258 659L138 416H61L228 720H287L456 416Z" />
<glyph unicode="_" glyph-name="underscore" horiz-adv-x="366" d="M356 -190V-250H10V-190H356Z" />
<glyph unicode="`" glyph-name="grave" horiz-adv-x="210" d="M22 720H110L190 555H128L22 720Z" />
<glyph unicode="a" glyph-name="a" horiz-adv-x="489" d="M73 428Q97 440 118 449T160 465T203 474T251 477Q290 477 322 469T378 440T415 388T428 306V0H355L344 52H342Q311 19 274 5T192 -9Q158 -9 130 0T80 27T48 70T36 126Q36 200 94 238T249 277H339V317Q339
368 313 386T243 405Q217 405 184 397T107 364L73 428ZM340 217L266 215Q191 213 160 189T128 129Q128 108 135 94T153 71T180 60T213 56Q246 56 280 71T340 121V217Z" />
<glyph unicode="b" glyph-name="b" horiz-adv-x="540" d="M502 235Q502 179 485 134T439 57T371 8T288 -9Q242 -9 208 4T143 44H141L132 0H69V710H156V411Q188 445 226 461T307 477Q397 477 449 413T502 235ZM410 234Q410 312 377 358T284 405Q246 405 215 388T156
340V112Q177 88 203 74T265 59Q293 59 319 69T366 100T398 155T410 234Z" />
<glyph unicode="c" glyph-name="c" horiz-adv-x="442" d="M291 59Q323 59 347 66T394 84L413 18Q359 -9 284 -9Q233 -9 189 6T111 51T58 127T39 234Q39 290 57 335T107 411T184 460T283 477Q314 477 343 473T411 451L391 384Q345 410 292 410Q219 410 174 365T129
237Q129 186 143 152T180 98T232 68T291 59Z" />
<glyph unicode="d" glyph-name="d" horiz-adv-x="536" d="M380 710H468V0H394L383 52H380Q349 20 318 6T238 -9Q200 -9 165 6T101 51T56 126T39 234Q39 289 53 334T95 411T161 460T250 477Q287 477 320 466T380 431V710ZM380 357Q333 410 269 410Q242 410 217
401T172 370T140 316T128 237Q128 189 139 156T168 101T210 69T258 59Q333 59 380 124V357Z" />
<glyph unicode="e" glyph-name="e" horiz-adv-x="504" d="M468 225H131V221Q131 143 173 101T289 59Q327 59 356 65T421 85L439 20Q410 7 371 -1T286 -9Q235 -9 191 5T112 48T59 124T39 234Q39 289 55 334T102 410T174 459T270 477Q315 477 351 462T414 420T454
355T468 271V225ZM377 288Q377 314 371 336T351 376T316 403T265 413Q210 413 176 378T133 286L377 288Z" />
<glyph unicode="f" glyph-name="f" horiz-adv-x="332" d="M245 715Q273 715 303 707T358 687L340 626Q320 634 302 638T264 643Q216 643 196 616T175 524V470H318V404H175V0H88V404H19V470H88V553Q88 631 128 673T245 715Z" />
<glyph unicode="g" glyph-name="g" horiz-adv-x="541" d="M61 314Q61 353 75 383T114 435T175 466T251 477Q266 477 280 475T308 470H511V405H480L400 416Q419 396 429 370T440 315Q440 276 426 246T387 194T327 163T251 152Q220 152 197 156Q174 148 165 136T156
109Q156 86 171 78T213 70H337Q415 70 456 35T498 -62Q498 -101 481 -132T433 -185T356 -218T255 -230Q153 -230 93 -194T32 -86Q32 -49 55 -24T117 14Q97 28 87 43T77 85Q77 116 95 138T146 173Q106 191 84 225T61 314ZM168 0Q117 -23 117 -72Q117 -160 259 -160Q301
-160 330 -152T377 -131T403 -102T412 -69Q412 -27 384 -14T312 0H168ZM351 312Q351 365 324 390T251 415Q206 415 179 390T151 316Q151 264 178 240T251 215Q296 215 323 239T351 312Z" />
<glyph unicode="h" glyph-name="h" horiz-adv-x="540" d="M157 0H69V710H157V410Q190 439 230 458T318 477Q357 477 386 466T433 434T461 385T471 324V0H383V302Q383 356 361 380T294 405Q260 405 226 388T157 340V0Z" />
<glyph unicode="i" glyph-name="i" horiz-adv-x="246" d="M82 0V470H170V0H82ZM126 591Q103 591 87 606T70 645Q70 668 86 684T126 700Q148 700 165 684T182 645Q182 622 165 607T126 591Z" />
<glyph unicode="j" glyph-name="j" horiz-adv-x="246" d="M79 470H167V71Q167 14 161 -33T136 -119T86 -188T4 -240L-37 -174Q-6 -158 16 -141T52 -99T72 -36T79 60V470ZM122 591Q99 591 83 606T66 645Q66 668 82 684T122 700Q144 700 161 684T178 645Q178 622
161 607T122 591Z" />
<glyph unicode="k" glyph-name="k" horiz-adv-x="467" d="M156 172V0H69V710H156V268L345 470H454L261 272L463 0H359L203 219L156 172Z" />
<glyph unicode="l" glyph-name="l" horiz-adv-x="230" d="M72 0V710H158V0H72Z" />
<glyph unicode="m" glyph-name="m" horiz-adv-x="824" d="M156 0H68V470H136L149 405Q182 438 220 457T311 477Q361 477 393 457T441 400Q476 437 518 457T611 477Q683 477 719 437T756 324V0H668V308Q668 355 648 380T582 405Q514 405 455 344Q456 339 456 334T456
324V0H368V308Q368 355 348 380T282 405Q214 405 156 341V0Z" />
<glyph unicode="n" glyph-name="n" horiz-adv-x="534" d="M156 0H68V470H137L150 405Q185 440 223 458T312 477Q384 477 425 437T466 324V0H378V311Q378 354 356 379T287 405Q217 405 156 342V0Z" />
<glyph unicode="o" glyph-name="o" horiz-adv-x="538" d="M499 240Q499 181 481 135T432 56T358 8T267 -9Q218 -9 177 6T105 52T57 127T39 230Q39 289 57 335T106 412T180 460T271 477Q320 477 361 462T433 417T481 343T499 240ZM407 235Q407 282 395 315T364
369T319 399T268 409Q242 409 217 401T173 373T143 320T131 235Q131 188 143 155T174 100T219 69T270 59Q296 59 321 67T365 96T395 150T407 235Z" />
<glyph unicode="p" glyph-name="p" horiz-adv-x="531" d="M263 -9Q231 -9 202 0T151 24V-230H64V477H137L150 416Q177 441 211 459T291 477Q385 477 439 417T493 245Q493 179 474 131T422 52T348 6T263 -9ZM272 405Q230 405 199 385T151 343V92Q174 75 200 67T252
59Q279 59 306 68T354 100T388 157T401 243Q401 318 370 361T272 405Z" />
<glyph unicode="q" glyph-name="q" horiz-adv-x="536" d="M380 34Q354 11 323 1T251 -9Q201 -9 162 8T95 57T54 134T39 235Q39 287 53 331T94 408T162 458T255 477Q270 477 288 474T323 463T357 446T385 422L395 470H468V-230H380V34ZM380 350Q362 375 334 392T270
410Q241 410 216 401T171 370T140 317T128 238Q128 149 165 104T263 59Q300 59 330 73T380 111V350Z" />
<glyph unicode="r" glyph-name="r" horiz-adv-x="372" d="M66 0V470H132L147 376Q164 421 203 449T293 477Q319 477 336 473T367 463L350 386Q338 392 324 396T289 400Q260 400 236 390T193 360T164 311T153 243V0H66Z" />
<glyph unicode="s" glyph-name="s" horiz-adv-x="407" d="M332 382Q299 398 272 404T218 410Q170 410 147 393T124 346Q124 325 140 310T207 279L237 270Q304 250 338 219T373 133Q373 69 326 30T193 -9Q148 -9 107 -1T35 21L56 90Q85 76 119 68T188 59Q233 59
259 75T286 128Q286 160 263 173T197 200L166 210Q101 231 70 262T38 344Q38 374 51 399T86 441T140 467T208 477Q243 477 280 471T352 449L332 382Z" />
<glyph unicode="t" glyph-name="t" horiz-adv-x="364" d="M315 404H177V131Q177 96 194 84T240 72Q260 72 284 76T326 87L340 20Q320 12 289 6T224 0Q154 0 122 30T90 119V404H20V470H90V620H177V470H315V404Z" />
<glyph unicode="u" glyph-name="u" horiz-adv-x="539" d="M383 470H471V0H402L390 59H386Q360 30 322 11T232 -9Q159 -9 114 32T68 158V470H156V169Q156 139 163 118T183 85T213 67T250 61Q290 61 322 78T383 125V470Z" />
<glyph unicode="v" glyph-name="v" horiz-adv-x="463" d="M357 470H451L276 0H190L13 470H108L214 147L232 73H236L253 146L357 470Z" />
<glyph unicode="w" glyph-name="w" horiz-adv-x="712" d="M11 470H105L185 174L203 69H207L229 174L310 470H405L488 174L509 69H513L535 174L613 470H703L560 0H460L380 288L357 404L333 288L251 0H156L11 470Z" />
<glyph unicode="x" glyph-name="x" horiz-adv-x="448" d="M274 238L439 0H339L258 118L221 179L187 119L109 0H11L174 238L19 470H118L192 355L228 295L263 355L332 470H428L274 238Z" />
<glyph unicode="y" glyph-name="y" horiz-adv-x="461" d="M9 470H103L203 201L237 89H239L273 201L364 470H454L273 -40Q243 -125 198 -173T89 -243L51 -173Q98 -155 134 -121T191 -27L200 0L9 470Z" />
<glyph unicode="z" glyph-name="z" horiz-adv-x="411" d="M382 419L133 66H387V0H25V54L274 404H42V470H382V419Z" />
<glyph unicode="{" glyph-name="braceleft" horiz-adv-x="326" d="M301 639Q250 639 225 612T199 536V393Q199 347 183 320T126 279V276Q164 259 181 224T199 135V-7Q199 -42 224 -63T301 -86V-155Q218 -153 167 -111T116 7V155Q116 197 95 220T28 246V307Q73
312 94 332T116 395V555Q116 587 128 614T163 662T221 693T301 705V639Z" />
<glyph unicode="|" glyph-name="bar" horiz-adv-x="219" d="M72 -230V750H147V-230H72Z" />
<glyph unicode="}" glyph-name="braceright" horiz-adv-x="326" d="M25 710Q70 710 104 698T162 665T198 616T210 555V395Q210 352 231 332T298 307V246Q252 244 231 221T210 155V7Q210 -68 159 -110T25 -155V-86Q76 -84 101 -63T127 -7V135Q127 189 144 224T200
276V279Q160 292 144 319T127 393V536Q127 585 102 612T25 639V710Z" />
<glyph unicode="~" glyph-name="asciitilde" horiz-adv-x="586" d="M48 210Q48 285 87 323T186 362Q216 362 244 349T300 320T352 291T402 278Q439 278 459 299T479 361H538Q538 316 526 287T494 241T450 216T403 209Q373 209 344 222T288 252T236 281T185 295Q147
295 127 270T107 210H48Z" />
<glyph unicode="&#xa0;" glyph-name="uni00A0" horiz-adv-x="222" />
<glyph unicode="&#xa1;" glyph-name="exclamdown" horiz-adv-x="246" d="M63 411Q63 440 81 457T124 474Q149 474 166 457T184 411Q184 385 167 367T124 349Q98 349 81 367T63 411ZM77 -245L87 256H159L171 -245H77Z" />
<glyph unicode="&#xa2;" glyph-name="cent" horiz-adv-x="510" d="M316 136Q348 136 372 143T419 161L438 95Q398 75 344 69V-20H269V70Q225 75 188 92T123 138T80 209T64 306Q64 409 120 470T269 542V639H344V542Q366 540 388 535T436 518L416 451Q395 463 368
470T310 477Q237 477 196 434T154 309Q154 258 168 225T205 172T257 144T316 136Z" />
<glyph unicode="&#xa3;" glyph-name="sterling" horiz-adv-x="505" d="M75 0L55 60Q116 93 142 146T154 275H61V338H144Q140 361 137 389T133 446Q133 490 148 526T191 587T255 625T337 639Q374 639 405 632T452 614L432 548Q413 556 390 562T337 568Q276 568
246 534T215 445Q215 413 218 388T227 338H391V275H235Q243 211 230 163T169 78L170 74H460V0H75Z" />
<glyph unicode="&#xa4;" glyph-name="currency" horiz-adv-x="513" d="M76 69L35 110L119 194Q88 240 88 307Q88 341 96 369T118 419L36 502L77 543L159 460Q200 489 258 489Q285 489 309 481T353 459L437 543L478 502L394 418Q408 395 416 367T425 307Q425 272
417 243T395 192L478 109L437 68L353 151Q333 138 309 131T255 124Q201 124 159 152L76 69ZM358 307Q358 368 333 402T258 437Q210 437 183 405T155 307Q155 244 181 210T255 176Q276 176 294 183T327 206T350 247T358 307Z" />
<glyph unicode="&#xa5;" glyph-name="yen" horiz-adv-x="508" d="M472 220V158H296V0H208V158H32V220H208V264L183 308H32V370H148L3 630H104L256 338L409 630H506L356 370H472V308H321L296 264V220H472Z" />
<glyph unicode="&#xa6;" glyph-name="brokenbar" horiz-adv-x="235" d="M80 380V750H155V380H80ZM80 -180V188H155V-180H80Z" />
<glyph unicode="&#xa7;" glyph-name="section" horiz-adv-x="519" d="M87 23Q120 7 153 -1T229 -9Q284 -9 310 12T337 67Q337 82 332 93T317 112T289 129T246 146L185 169Q126 192 93 225T60 309Q60 347 78 376T123 426Q100 455 100 497Q100 527 112 553T147 598T204
628T280 639Q319 639 354 633T424 611L404 548Q371 564 344 570T290 576Q235 576 209 557T182 504Q182 489 187 478T202 459T230 442T273 425L334 402Q393 379 426 346T459 262Q459 223 441 194T396 144Q407 130 413 113T419 74Q419 44 407 17T372 -29T315 -60T239
-72Q185 -72 143 -64T67 -40L87 23ZM378 251Q378 286 357 303T300 334L239 356Q222 362 205 369T173 385Q159 373 150 357T141 320Q141 285 162 268T219 237L280 215Q297 208 313 201T345 186Q359 198 368 213T378 251Z" />
<glyph unicode="&#xa8;" glyph-name="dieresis" horiz-adv-x="334" d="M34 623Q34 642 49 657T84 672Q104 672 119 657T134 623Q134 603 119 588T84 572Q64 572 49 587T34 623ZM200 623Q200 642 215 657T250 672Q270 672 285 657T300 623Q300 603 285 588T250
572Q230 572 215 587T200 623Z" />
<glyph unicode="&#xa9;" glyph-name="copyright" horiz-adv-x="706" d="M379 186Q402 186 419 191T453 204L467 156Q426 137 373 137Q337 137 305 148T249 180T211 235T197 312Q197 352 210 384T246 440T301 475T373 487Q395 487 416 484T465 469L451 420Q416
439 380 439Q326 439 294 407T262 314Q262 278 272 254T298 214T336 193T379 186ZM355 639Q419 639 476 619T576 558T644 457T670 315Q670 236 644 176T574 74T473 12T351 -9Q287 -9 230 11T130 72T62 173T36 315Q36 394 62 454T132 556T233 618T355 639ZM355 605Q299
605 248 587T159 531T99 440T76 315Q76 242 98 188T157 97T245 43T351 25Q407 25 457 43T546 99T607 190T630 315Q630 388 608 442T549 533T461 587T355 605Z" />
<glyph unicode="&#xaa;" glyph-name="ordfeminine" horiz-adv-x="333" d="M57 556Q89 573 114 580T175 588Q200 588 221 583T258 564T282 530T291 476V274H243L236 308H235Q215 286 190 277T136 268Q91 268 62 291T33 357Q33 406 71 431T173 456H233V483Q233 517
216 529T169 541Q152 541 130 536T79 514L57 556ZM233 417L184 415Q134 413 114 398T93 359Q93 330 110 321T149 311Q171 311 193 321T233 353V417Z" />
<glyph unicode="&#xab;" glyph-name="guillemotleft" horiz-adv-x="489" d="M374 76L226 236L374 397H450L314 236L450 76H374ZM194 76L46 236L194 397H270L134 236L270 76H194Z" />
<glyph unicode="&#xac;" glyph-name="logicalnot" horiz-adv-x="1444" />
<glyph unicode="&#xad;" glyph-name="uni00AD" horiz-adv-x="280" d="M250 333V254H30V333H250Z" />
<glyph unicode="&#xae;" glyph-name="registered" horiz-adv-x="532" d="M185 590H284Q324 590 345 569T367 515Q367 484 352 467T316 441L381 338H332L275 434H225V338H185V590ZM225 467H267Q292 467 308 477T325 513Q325 537 312 546T273 556H225V467ZM492 468Q492
411 476 369T429 297T358 254T267 239Q217 239 176 253T104 295T57 364T40 460Q40 516 56 558T103 629T174 672T265 686Q314 686 356 672T428 631T475 563T492 468ZM458 464Q458 514 443 551T401 612T339 648T265 660Q226 660 192 649T131 615T89 554T74 464Q74
413 88 376T127 314T188 277T267 264Q306 264 340 275T401 311T443 373T458 464Z" />
<glyph unicode="&#xaf;" glyph-name="overscore" horiz-adv-x="286" d="M256 660V603H31V660H256Z" />
<glyph unicode="&#xb0;" glyph-name="degree" horiz-adv-x="391" d="M359 467Q359 387 317 341T196 294Q124 294 80 340T36 467Q36 506 47 537T80 591T132 626T199 639Q235 639 264 627T315 592T347 538T359 467ZM292 467Q292 521 271 554T199 587Q151 587 127
556T103 467Q103 412 125 379T196 346Q238 346 265 375T292 467Z" />
<glyph unicode="&#xb1;" glyph-name="plusminus" horiz-adv-x="469" d="M404 61V0H65V61H404ZM434 371V310H265V141H204V310H35V371H204V540H265V371H434Z" />
<glyph unicode="&#xb2;" glyph-name="twosuperior" horiz-adv-x="316" d="M140 800Q117 800 96 794T46 771L15 820Q45 840 76 849T142 858Q211 858 248 823T286 732Q286 694 262 651T170 556L101 503H286V445H27L16 495L97 564Q128 590 150 611T187 652T209 691T216
730Q216 761 196 780T140 800Z" />
<glyph unicode="&#xb3;" glyph-name="threesuperior" horiz-adv-x="296" d="M21 835Q53 849 79 853T131 858Q158 858 182 850T224 828T252 793T263 748Q263 677 184 654V652Q226 644 251 620T277 558Q277 528 264 506T230 469T181 447T123 440Q97 440 64 445T10
458L26 512Q55 503 75 501T122 498Q154 498 179 515T204 564Q204 587 184 604T115 622H56V676H100Q147 676 169 694T192 742Q192 775 169 788T119 802Q100 802 80 798T40 785L21 835Z" />
<glyph unicode="&#xb4;" glyph-name="acute" horiz-adv-x="253" d="M94 555H32L112 720H200L94 555Z" />
<glyph unicode="&#xb5;" glyph-name="uni00B5" horiz-adv-x="537" d="M383 470H471V0H402L390 59H386Q360 30 322 11T232 -9Q209 -9 189 -5T149 9L156 -73V-160H68V470H156V169Q156 139 163 118T183 85T213 67T250 61Q290 61 322 78T383 125V470Z" />
<glyph unicode="&#xb6;" glyph-name="paragraph" horiz-adv-x="552" d="M411 -180V572H320V-180H258V263Q146 263 91 313T35 449Q35 497 51 532T96 591T166 627T256 639H472V-180H411Z" />
<glyph unicode="&#xb7;" glyph-name="middot" horiz-adv-x="184" d="M33 332Q33 356 50 375T93 394Q118 394 135 375T152 332Q152 306 135 288T93 269Q68 269 51 287T33 332Z" />
<glyph unicode="&#xb8;" glyph-name="cedilla" horiz-adv-x="286" d="M128 0H180L154 -47Q199 -50 220 -69T242 -117Q242 -138 233 -153T209 -179T173 -195T131 -200Q108 -200 89 -197T57 -188L69 -146Q82 -151 96 -153T124 -155Q151 -155 166 -147T182 -119Q182
-99 162 -89T91 -78L128 0Z" />
<glyph unicode="&#xb9;" glyph-name="onesuperior" horiz-adv-x="264" d="M146 851H197V445H128V777L38 736L22 794L146 851Z" />
<glyph unicode="&#xba;" glyph-name="ordmasculine" horiz-adv-x="838" />
<glyph unicode="&#xbb;" glyph-name="guillemotright" horiz-adv-x="489" d="M226 76L362 236L226 397H302L450 236L302 76H226ZM46 76L182 236L46 397H122L270 236L122 76H46Z" />
<glyph unicode="&#xbc;" glyph-name="onequarter" horiz-adv-x="826" d="M163 -9L571 639H636L228 -9H163ZM164 630H215V224H146V556L56 515L40 573L164 630ZM632 406H708V155H776V102H708V0H641V102H436V146L632 406ZM608 284L510 155H641V284L645 340H643L608 284Z" />
<glyph unicode="&#xbd;" glyph-name="onehalf" horiz-adv-x="844" d="M153 -9L561 639H626L218 -9H153ZM658 355Q635 355 614 349T564 326L533 375Q563 395 594 404T660 413Q729 413 766 378T804 287Q804 249 780 206T688 111L619 58H804V0H545L534 50L615 119Q646
145 668 166T705 207T727 246T734 285Q734 316 714 335T658 355ZM164 630H215V224H146V556L56 515L40 573L164 630Z" />
<glyph unicode="&#xbe;" glyph-name="threequarters" horiz-adv-x="878" d="M215 -9L623 639H688L280 -9H215ZM684 406H760V155H828V102H760V0H693V102H488V146L684 406ZM660 284L562 155H693V284L697 340H695L660 284ZM61 613Q93 627 119 631T171 636Q198 636
222 628T264 606T292 571T303 526Q303 455 224 432V430Q266 422 291 398T317 336Q317 306 304 284T270 247T221 225T163 218Q137 218 104 223T50 236L66 290Q95 281 115 279T162 276Q194 276 219 293T244 342Q244 365 224 382T155 400H96V454H140Q187 454 209 472T232
520Q232 553 209 566T159 580Q140 580 120 576T80 563L61 613Z" />
<glyph unicode="&#xbf;" glyph-name="questiondown" horiz-adv-x="440" d="M255 -250Q210 -250 175 -238T114 -203T76 -149T63 -82Q63 -57 71 -33T94 13T127 54T163 91Q204 128 227 156T250 219Q250 233 248 244T241 271L316 285Q322 270 325 253T329 218Q329
174 307 139T242 61Q224 43 208 27T180 -6T161 -41T153 -81Q153 -99 158 -115T176 -145T209 -166T260 -174Q283 -174 308 -168T359 -143L397 -209Q368 -230 329 -240T255 -250ZM331 411Q331 385 313 367T270 349Q245 349 228 367T210 411Q210 440 227 457T270 474Q295
474 313 457T331 411Z" />
<glyph unicode="&#xc0;" glyph-name="Agrave" horiz-adv-x="590" d="M256 630H338L589 0H493L424 175H165L97 0H2L256 630ZM190 248H397L355 357Q338 400 324 440T296 522H294Q280 480 265 441T233 357L190 248ZM153 834H256L336 710H264L153 834Z" />
<glyph unicode="&#xc1;" glyph-name="Aacute" horiz-adv-x="590" d="M256 630H338L589 0H493L424 175H165L97 0H2L256 630ZM190 248H397L355 357Q338 400 324 440T296 522H294Q280 480 265 441T233 357L190 248ZM327 710H255L335 834H438L327 710Z" />
<glyph unicode="&#xc2;" glyph-name="Acircumflex" horiz-adv-x="590" d="M256 630H338L589 0H493L424 175H165L97 0H2L256 630ZM190 248H397L355 357Q338 400 324 440T296 522H294Q280 480 265 441T233 357L190 248ZM261 844H330L455 710H375L295 794L215 710H139L261
844Z" />
<glyph unicode="&#xc3;" glyph-name="Atilde" horiz-adv-x="590" d="M256 630H338L589 0H493L424 175H165L97 0H2L256 630ZM190 248H397L355 357Q338 400 324 440T296 522H294Q280 480 265 441T233 357L190 248ZM141 710Q141 756 161 788T228 820Q249 820 265
813T296 798T325 783T355 776Q375 776 383 791T394 823H444Q444 802 439 783T424 748T398 723T361 713Q340 713 322 719T287 734T257 749T231 756Q210 756 202 743T191 710H141Z" />
<glyph unicode="&#xc4;" glyph-name="Adieresis" horiz-adv-x="590" d="M256 630H338L589 0H493L424 175H165L97 0H2L256 630ZM190 248H397L355 357Q338 400 324 440T296 522H294Q280 480 265 441T233 357L190 248ZM162 761Q162 780 177 795T212 810Q232 810 247
795T262 761Q262 741 247 726T212 710Q192 710 177 725T162 761ZM328 761Q328 780 343 795T378 810Q398 810 413 795T428 761Q428 741 413 726T378 710Q358 710 343 725T328 761Z" />
<glyph unicode="&#xc5;" glyph-name="Aring" horiz-adv-x="590" d="M256 630H338L589 0H493L424 175H165L97 0H2L256 630ZM190 248H397L355 357Q338 400 324 440T296 522H294Q280 480 265 441T233 357L190 248ZM199 760Q199 804 227 823T296 843Q338 843 365 824T393
760Q393 738 385 722T364 696T333 682T296 677Q257 677 228 697T199 760ZM248 760Q248 737 260 724T296 710Q319 710 331 723T344 760Q344 783 332 796T296 810Q273 810 261 797T248 760Z" />
<glyph unicode="&#xc6;" glyph-name="AE" horiz-adv-x="789" d="M2 0L326 630H742V554H474V365H716V290H474V76H745V0H386V175H196L111 0H2ZM386 561L227 245H386V561Z" />
<glyph unicode="&#xc7;" glyph-name="Ccedilla" horiz-adv-x="559" d="M355 67Q405 67 437 75T502 98L523 24Q488 8 449 0T353 -9L336 -47Q364 -48 383 -55T413 -73T429 -98T434 -127Q434 -169 400 -191T313 -214Q290 -214 271 -211T239 -202L251 -160Q264 -165
278 -167T306 -169Q374 -169 374 -129Q374 -119 371 -110T356 -93T326 -82T273 -78L307 -7Q251 -1 204 23T121 87T65 185T45 315Q45 392 68 452T131 554T228 617T350 639Q412 639 452 629T526 602L504 530Q485 538 469 544T436 555T402 561T362 563Q318 563 279
550T210 506T163 429T145 314Q145 246 162 199T207 123T274 81T355 67Z" />
<glyph unicode="&#xc8;" glyph-name="Egrave" horiz-adv-x="507" d="M80 630H460V554H172V365H434V290H172V76H463V0H80V630ZM170 834H273L353 710H281L170 834Z" />
<glyph unicode="&#xc9;" glyph-name="Eacute" horiz-adv-x="501" d="M80 630H460V554H172V365H434V290H172V76H463V0H80V630ZM274 710H202L282 834H385L274 710Z" />
<glyph unicode="&#xca;" glyph-name="Ecircumflex" horiz-adv-x="501" d="M80 630H460V554H172V365H434V290H172V76H463V0H80V630ZM228 844H297L422 710H342L262 794L182 710H106L228 844Z" />
<glyph unicode="&#xcb;" glyph-name="Edieresis" horiz-adv-x="501" d="M80 630H460V554H172V365H434V290H172V76H463V0H80V630ZM139 761Q139 780 154 795T189 810Q209 810 224 795T239 761Q239 741 224 726T189 710Q169 710 154 725T139 761ZM305 761Q305 780
320 795T355 810Q375 810 390 795T405 761Q405 741 390 726T355 710Q335 710 320 725T305 761Z" />
<glyph unicode="&#xcc;" glyph-name="Igrave" horiz-adv-x="252" d="M172 630V0H80V630H172ZM-21 834H82L162 710H90L-21 834Z" />
<glyph unicode="&#xcd;" glyph-name="Iacute" horiz-adv-x="252" d="M172 630V0H80V630H172ZM161 710H89L169 834H272L161 710Z" />
<glyph unicode="&#xce;" glyph-name="Icircumflex" horiz-adv-x="252" d="M172 630V0H80V630H172ZM91 844H160L285 710H205L125 794L45 710H-31L91 844Z" />
<glyph unicode="&#xcf;" glyph-name="Idieresis" horiz-adv-x="252" d="M172 630V0H80V630H172ZM-9 761Q-9 780 6 795T41 810Q61 810 76 795T91 761Q91 741 76 726T41 710Q21 710 6 725T-9 761ZM157 761Q157 780 172 795T207 810Q227 810 242 795T257 761Q257
741 242 726T207 710Q187 710 172 725T157 761Z" />
<glyph unicode="&#xd0;" glyph-name="Eth" horiz-adv-x="672" d="M315 630Q382 630 439 611T537 555T602 461T626 329Q626 238 598 175T523 73T413 17T280 0H110V298H30V360H110V630H315ZM330 360V298H202V76H271Q319 76 365 86T446 125T504 203T526 329Q526 383
510 425T464 495T392 539T297 554H202V360H330Z" />
<glyph unicode="&#xd1;" glyph-name="Ntilde" horiz-adv-x="662" d="M80 630H220L431 216L491 86H494L493 236V630H583V0H443L239 396L172 549H169L170 376V0H80V630ZM198 710Q198 756 218 788T285 820Q306 820 322 813T353 798T382 783T412 776Q432 776 440 791T451
823H501Q501 802 496 783T481 748T455 723T418 713Q397 713 379 719T344 734T314 749T288 756Q267 756 259 743T248 710H198Z" />
<glyph unicode="&#xd2;" glyph-name="Ograve" horiz-adv-x="686" d="M345 639Q409 639 463 619T556 558T618 457T640 315Q640 236 617 176T554 74T460 12T341 -9Q277 -9 223 11T130 72T68 173T46 315Q46 394 69 454T132 556T226 618T345 639ZM146 315Q146 251
161 204T204 126T267 80T345 65Q386 65 421 80T483 126T525 204T540 315Q540 381 525 428T482 505T419 550T341 565Q300 565 264 550T202 504T161 426T146 315ZM230 834H333L413 710H341L230 834Z" />
<glyph unicode="&#xd3;" glyph-name="Oacute" horiz-adv-x="686" d="M345 639Q409 639 463 619T556 558T618 457T640 315Q640 236 617 176T554 74T460 12T341 -9Q277 -9 223 11T130 72T68 173T46 315Q46 394 69 454T132 556T226 618T345 639ZM146 315Q146 251
161 204T204 126T267 80T345 65Q386 65 421 80T483 126T525 204T540 315Q540 381 525 428T482 505T419 550T341 565Q300 565 264 550T202 504T161 426T146 315ZM334 710H262L342 834H445L334 710Z" />
<glyph unicode="&#xd4;" glyph-name="Ocircumflex" horiz-adv-x="686" d="M345 639Q409 639 463 619T556 558T618 457T640 315Q640 236 617 176T554 74T460 12T341 -9Q277 -9 223 11T130 72T68 173T46 315Q46 394 69 454T132 556T226 618T345 639ZM146 315Q146
251 161 204T204 126T267 80T345 65Q386 65 421 80T483 126T525 204T540 315Q540 381 525 428T482 505T419 550T341 565Q300 565 264 550T202 504T161 426T146 315ZM309 844H378L503 710H423L343 794L263 710H187L309 844Z" />
<glyph unicode="&#xd5;" glyph-name="Otilde" horiz-adv-x="686" d="M345 639Q409 639 463 619T556 558T618 457T640 315Q640 236 617 176T554 74T460 12T341 -9Q277 -9 223 11T130 72T68 173T46 315Q46 394 69 454T132 556T226 618T345 639ZM146 315Q146 251
161 204T204 126T267 80T345 65Q386 65 421 80T483 126T525 204T540 315Q540 381 525 428T482 505T419 550T341 565Q300 565 264 550T202 504T161 426T146 315ZM187 711Q187 757 207 789T274 821Q295 821 311 814T342 799T371 784T401 777Q421 777 429 792T440
824H490Q490 803 485 784T470 749T444 724T407 714Q386 714 368 720T333 735T303 750T277 757Q256 757 248 744T237 711H187Z" />
<glyph unicode="&#xd6;" glyph-name="Odieresis" horiz-adv-x="686" d="M345 639Q409 639 463 619T556 558T618 457T640 315Q640 236 617 176T554 74T460 12T341 -9Q277 -9 223 11T130 72T68 173T46 315Q46 394 69 454T132 556T226 618T345 639ZM146 315Q146 251
161 204T204 126T267 80T345 65Q386 65 421 80T483 126T525 204T540 315Q540 381 525 428T482 505T419 550T341 565Q300 565 264 550T202 504T161 426T146 315ZM209 761Q209 780 224 795T259 810Q279 810 294 795T309 761Q309 741 294 726T259 710Q239 710 224
725T209 761ZM375 761Q375 780 390 795T425 810Q445 810 460 795T475 761Q475 741 460 726T425 710Q405 710 390 725T375 761Z" />
<glyph unicode="&#xd7;" glyph-name="multiply" horiz-adv-x="400" d="M38 182L159 303L38 424L79 465L200 344L321 465L362 424L241 303L362 182L321 141L200 262L79 141L38 182Z" />
<glyph unicode="&#xd8;" glyph-name="Oslash" horiz-adv-x="686" d="M500 748L540 734L490 607Q558 571 599 499T640 315Q640 236 617 176T554 74T460 12T341 -9Q315 -9 289 -5T240 5L178 -152L138 -135L199 21Q130 58 88 129T46 315Q46 394 69 454T132 556T226
618T345 639Q371 639 398 635T450 622L500 748ZM146 315Q146 234 170 181T235 98L416 551Q380 565 341 565Q300 565 264 550T202 504T161 426T146 315ZM345 65Q386 65 421 80T483 126T525 204T540 315Q540 396 517 449T454 531L274 77Q307 65 345 65Z" />
<glyph unicode="&#xd9;" glyph-name="Ugrave" horiz-adv-x="640" d="M72 630H164V253Q164 152 201 109T320 66Q401 66 438 114T476 241V630H568V244Q568 115 502 53T320 -9Q203 -9 138 52T72 249V630ZM190 834H293L373 710H301L190 834Z" />
<glyph unicode="&#xda;" glyph-name="Uacute" horiz-adv-x="640" d="M72 630H164V253Q164 152 201 109T320 66Q401 66 438 114T476 241V630H568V244Q568 115 502 53T320 -9Q203 -9 138 52T72 249V630ZM324 710H252L332 834H435L324 710Z" />
<glyph unicode="&#xdb;" glyph-name="Ucircumflex" horiz-adv-x="640" d="M72 630H164V253Q164 152 201 109T320 66Q401 66 438 114T476 241V630H568V244Q568 115 502 53T320 -9Q203 -9 138 52T72 249V630ZM286 844H355L480 710H400L320 794L240 710H164L286 844Z" />
<glyph unicode="&#xdc;" glyph-name="Udieresis" horiz-adv-x="640" d="M72 630H164V253Q164 152 201 109T320 66Q401 66 438 114T476 241V630H568V244Q568 115 502 53T320 -9Q203 -9 138 52T72 249V630ZM187 761Q187 780 202 795T237 810Q257 810 272 795T287
761Q287 741 272 726T237 710Q217 710 202 725T187 761ZM353 761Q353 780 368 795T403 810Q423 810 438 795T453 761Q453 741 438 726T403 710Q383 710 368 725T353 761Z" />
<glyph unicode="&#xdd;" glyph-name="Yacute" horiz-adv-x="508" d="M99 630L256 348L414 630H511L298 264V0H206V264L-2 630H99ZM294 710H222L302 834H405L294 710Z" />
<glyph unicode="&#xde;" glyph-name="Thorn" horiz-adv-x="515" d="M72 630H158V497Q178 503 200 506T248 510Q294 510 334 497T405 460T452 400T469 321Q469 268 451 229T401 163T324 124T229 111Q215 111 195 112T158 116V0H72V630ZM158 189Q175 184 191 183T231
181Q298 181 338 215T379 312Q379 345 368 369T338 409T293 433T239 441Q216 441 194 438T158 430V189Z" />
<glyph unicode="&#xdf;" glyph-name="germandbls" horiz-adv-x="571" d="M74 0V480Q74 532 87 576T127 652T198 702T302 720Q337 720 370 710T430 679T472 628T488 557Q488 532 482 509T468 470Q415 458 393 438T370 383Q370 352 388 332T431 295Q470 267 498
232T526 143Q526 76 479 34T346 -9Q318 -9 285 -4T232 12L252 77Q294 59 340 59Q388 59 413 82T438 141Q438 171 419 191T366 238Q347 253 332 267T306 299T289 335T283 380Q283 425 312 458T398 510Q402 519 403 529T404 555Q404 604 374 627T299 650Q267 650
242 641T198 610T170 553T160 466V0H74Z" />
<glyph unicode="&#xe0;" glyph-name="agrave" horiz-adv-x="489" d="M73 428Q97 440 118 449T160 465T203 474T251 477Q290 477 322 469T378 440T415 388T428 306V0H355L344 52H342Q311 19 274 5T192 -9Q158 -9 130 0T80 27T48 70T36 126Q36 200 94 238T249 277H339V317Q339
368 313 386T243 405Q217 405 184 397T107 364L73 428ZM340 217L266 215Q191 213 160 189T128 129Q128 108 135 94T153 71T180 60T213 56Q246 56 280 71T340 121V217ZM130 690H233L303 556H231L130 690Z" />
<glyph unicode="&#xe1;" glyph-name="aacute" horiz-adv-x="489" d="M73 428Q97 440 118 449T160 465T203 474T251 477Q290 477 322 469T378 440T415 388T428 306V0H355L344 52H342Q311 19 274 5T192 -9Q158 -9 130 0T80 27T48 70T36 126Q36 200 94 238T249 277H339V317Q339
368 313 386T243 405Q217 405 184 397T107 364L73 428ZM340 217L266 215Q191 213 160 189T128 129Q128 108 135 94T153 71T180 60T213 56Q246 56 280 71T340 121V217ZM271 556H199L269 690H372L271 556Z" />
<glyph unicode="&#xe2;" glyph-name="acircumflex" horiz-adv-x="489" d="M73 428Q97 440 118 449T160 465T203 474T251 477Q290 477 322 469T378 440T415 388T428 306V0H355L344 52H342Q311 19 274 5T192 -9Q158 -9 130 0T80 27T48 70T36 126Q36 200 94 238T249
277H339V317Q339 368 313 386T243 405Q217 405 184 397T107 364L73 428ZM340 217L266 215Q191 213 160 189T128 129Q128 108 135 94T153 71T180 60T213 56Q246 56 280 71T340 121V217ZM398 556H322L252 640L182 556H102L217 690H286L398 556Z" />
<glyph unicode="&#xe3;" glyph-name="atilde" horiz-adv-x="489" d="M73 428Q97 440 118 449T160 465T203 474T251 477Q290 477 322 469T378 440T415 388T428 306V0H355L344 52H342Q311 19 274 5T192 -9Q158 -9 130 0T80 27T48 70T36 126Q36 200 94 238T249 277H339V317Q339
368 313 386T243 405Q217 405 184 397T107 364L73 428ZM340 217L266 215Q191 213 160 189T128 129Q128 108 135 94T153 71T180 60T213 56Q246 56 280 71T340 121V217ZM98 556Q98 602 118 634T185 666Q206 666 222 659T253 644T282 629T312 622Q332 622 340 637T351
669H401Q401 648 396 629T381 594T355 569T318 559Q297 559 279 565T244 580T214 595T188 602Q167 602 159 589T148 556H98Z" />
<glyph unicode="&#xe4;" glyph-name="adieresis" horiz-adv-x="489" d="M73 428Q97 440 118 449T160 465T203 474T251 477Q290 477 322 469T378 440T415 388T428 306V0H355L344 52H342Q311 19 274 5T192 -9Q158 -9 130 0T80 27T48 70T36 126Q36 200 94 238T249
277H339V317Q339 368 313 386T243 405Q217 405 184 397T107 364L73 428ZM340 217L266 215Q191 213 160 189T128 129Q128 108 135 94T153 71T180 60T213 56Q246 56 280 71T340 121V217ZM124 623Q124 642 139 657T174 672Q194 672 209 657T224 623Q224 603 209 588T174
572Q154 572 139 587T124 623ZM290 623Q290 642 305 657T340 672Q360 672 375 657T390 623Q390 603 375 588T340 572Q320 572 305 587T290 623Z" />
<glyph unicode="&#xe5;" glyph-name="aring" horiz-adv-x="489" d="M73 428Q97 440 118 449T160 465T203 474T251 477Q290 477 322 469T378 440T415 388T428 306V0H355L344 52H342Q311 19 274 5T192 -9Q158 -9 130 0T80 27T48 70T36 126Q36 200 94 238T249 277H339V317Q339
368 313 386T243 405Q217 405 184 397T107 364L73 428ZM340 217L266 215Q191 213 160 189T128 129Q128 108 135 94T153 71T180 60T213 56Q246 56 280 71T340 121V217ZM160 623Q160 665 188 685T253 706Q291 706 318 686T346 623Q346 602 338 587T317 561T288 545T253
540Q217 540 189 561T160 623ZM205 623Q205 600 217 587T253 573Q276 573 288 586T301 623Q301 646 289 659T253 673Q230 673 218 660T205 623Z" />
<glyph unicode="&#xe6;" glyph-name="ae" horiz-adv-x="785" d="M749 220H422V216Q422 138 462 99T575 59Q613 59 642 65T707 85L725 20Q696 7 657 -1T572 -9Q509 -9 460 11T381 77H379Q347 35 304 13T195 -9Q161 -9 132 0T82 27T48 70T36 126Q36 200 94 238T249
277H342V317Q342 368 315 386T243 405Q217 405 184 397T107 364L73 428Q97 440 118 449T160 465T203 474T251 477Q305 477 339 462T397 409H399Q431 447 470 462T556 477Q602 477 637 462T698 420T736 353T749 266V220ZM128 129Q128 108 135 94T153 71T180 60T213
56Q255 56 291 74T354 132Q348 151 345 171T340 217L266 215Q191 213 160 189T128 129ZM658 280Q658 306 653 330T634 372T601 402T551 413Q496 413 462 377T423 279L658 280Z" />
<glyph unicode="&#xe7;" glyph-name="ccedilla" horiz-adv-x="442" d="M291 59Q323 59 347 66T394 84L413 18Q359 -9 284 -9L264 -47Q309 -50 330 -69T352 -117Q352 -138 343 -153T319 -179T283 -195T241 -200Q218 -200 199 -197T167 -188L179 -146Q192 -151 206
-153T234 -155Q261 -155 276 -147T292 -119Q292 -99 272 -89T201 -78L236 -5Q194 1 158 19T95 67T54 138T39 234Q39 290 57 335T107 411T184 460T283 477Q314 477 343 473T411 451L391 384Q345 410 292 410Q219 410 174 365T129 237Q129 186 143 152T180 98T232
68T291 59Z" />
<glyph unicode="&#xe8;" glyph-name="egrave" horiz-adv-x="504" d="M468 225H131V221Q131 143 173 101T289 59Q327 59 356 65T421 85L439 20Q410 7 371 -1T286 -9Q235 -9 191 5T112 48T59 124T39 234Q39 289 55 334T102 410T174 459T270 477Q315 477 351 462T414
420T454 355T468 271V225ZM377 288Q377 314 371 336T351 376T316 403T265 413Q210 413 176 378T133 286L377 288ZM249 690L319 556H247L146 690H249Z" />
<glyph unicode="&#xe9;" glyph-name="eacute" horiz-adv-x="504" d="M468 225H131V221Q131 143 173 101T289 59Q327 59 356 65T421 85L439 20Q410 7 371 -1T286 -9Q235 -9 191 5T112 48T59 124T39 234Q39 289 55 334T102 410T174 459T270 477Q315 477 351 462T414
420T454 355T468 271V225ZM377 288Q377 314 371 336T351 376T316 403T265 413Q210 413 176 378T133 286L377 288ZM385 690L284 556H212L282 690H385Z" />
<glyph unicode="&#xea;" glyph-name="ecircumflex" horiz-adv-x="504" d="M468 225H131V221Q131 143 173 101T289 59Q327 59 356 65T421 85L439 20Q410 7 371 -1T286 -9Q235 -9 191 5T112 48T59 124T39 234Q39 289 55 334T102 410T174 459T270 477Q315 477 351
462T414 420T454 355T468 271V225ZM377 288Q377 314 371 336T351 376T316 403T265 413Q210 413 176 378T133 286L377 288ZM335 556L265 640L195 556H115L230 690H299L411 556H335Z" />
<glyph unicode="&#xeb;" glyph-name="edieresis" horiz-adv-x="504" d="M468 225H131V221Q131 143 173 101T289 59Q327 59 356 65T421 85L439 20Q410 7 371 -1T286 -9Q235 -9 191 5T112 48T59 124T39 234Q39 289 55 334T102 410T174 459T270 477Q315 477 351 462T414
420T454 355T468 271V225ZM377 288Q377 314 371 336T351 376T316 403T265 413Q210 413 176 378T133 286L377 288ZM134 623Q134 642 149 657T184 672Q204 672 219 657T234 623Q234 603 219 588T184 572Q164 572 149 587T134 623ZM300 623Q300 642 315 657T350 672Q370
672 385 657T400 623Q400 603 385 588T350 572Q330 572 315 587T300 623Z" />
<glyph unicode="&#xec;" glyph-name="igrave" horiz-adv-x="248" d="M80 0V470H168V0H80ZM-5 690H98L168 556H96L-5 690Z" />
<glyph unicode="&#xed;" glyph-name="iacute" horiz-adv-x="248" d="M80 0V470H168V0H80ZM152 556H80L150 690H253L152 556Z" />
<glyph unicode="&#xee;" glyph-name="icircumflex" horiz-adv-x="248" d="M80 0V470H168V0H80ZM269 556H193L124 640L54 556H-26L89 690H158L269 556Z" />
<glyph unicode="&#xef;" glyph-name="idieresis" horiz-adv-x="248" d="M80 0V470H168V0H80ZM-14 623Q-14 642 1 657T36 672Q56 672 71 657T86 623Q86 603 71 588T36 572Q16 572 1 587T-14 623ZM152 623Q152 642 167 657T202 672Q222 672 237 657T252 623Q252
603 237 588T202 572Q182 572 167 587T152 623Z" />
<glyph unicode="&#xf0;" glyph-name="eth" horiz-adv-x="528" d="M248 457Q285 457 320 442T379 398H382Q368 452 336 500T264 577L154 522L131 561L224 607Q201 621 178 630T126 648L159 705Q196 696 233 677T304 633L396 680L419 641L341 602Q366 575 391 541T435
464T466 369T478 252Q478 195 464 147T422 65T353 11T258 -9Q220 -9 182 4T112 46T60 118T40 224Q40 279 56 322T100 396T166 441T248 457ZM260 390Q237 390 214 382T171 355T141 305T129 227Q129 179 141 147T172 96T215 68T263 59Q291 59 315 71T356 106T383
160T393 228Q393 267 382 297T353 347T310 379T260 390Z" />
<glyph unicode="&#xf1;" glyph-name="ntilde" horiz-adv-x="532" d="M154 0H66V470H135L148 405Q183 440 221 458T310 477Q382 477 423 437T464 324V0H376V311Q376 354 354 379T285 405Q215 405 154 342V0ZM113 556Q113 602 133 634T200 666Q221 666 237 659T268
644T297 629T327 622Q347 622 355 637T366 669H416Q416 648 411 629T396 594T370 569T333 559Q312 559 294 565T259 580T229 595T203 602Q182 602 174 589T163 556H113Z" />
<glyph unicode="&#xf2;" glyph-name="ograve" horiz-adv-x="538" d="M499 240Q499 181 481 135T432 56T358 8T267 -9Q218 -9 177 6T105 52T57 127T39 230Q39 289 57 335T106 412T180 460T271 477Q320 477 361 462T433 417T481 343T499 240ZM407 235Q407 282 395
315T364 369T319 399T268 409Q242 409 217 401T173 373T143 320T131 235Q131 188 143 155T174 100T219 69T270 59Q296 59 321 67T365 96T395 150T407 235ZM158 690H261L331 556H259L158 690Z" />
<glyph unicode="&#xf3;" glyph-name="oacute" horiz-adv-x="538" d="M499 240Q499 181 481 135T432 56T358 8T267 -9Q218 -9 177 6T105 52T57 127T39 230Q39 289 57 335T106 412T180 460T271 477Q320 477 361 462T433 417T481 343T499 240ZM407 235Q407 282 395
315T364 369T319 399T268 409Q242 409 217 401T173 373T143 320T131 235Q131 188 143 155T174 100T219 69T270 59Q296 59 321 67T365 96T395 150T407 235ZM287 556H215L285 690H388L287 556Z" />
<glyph unicode="&#xf4;" glyph-name="ocircumflex" horiz-adv-x="538" d="M499 240Q499 181 481 135T432 56T358 8T267 -9Q218 -9 177 6T105 52T57 127T39 230Q39 289 57 335T106 412T180 460T271 477Q320 477 361 462T433 417T481 343T499 240ZM407 235Q407 282
395 315T364 369T319 399T268 409Q242 409 217 401T173 373T143 320T131 235Q131 188 143 155T174 100T219 69T270 59Q296 59 321 67T365 96T395 150T407 235ZM414 556H338L268 640L198 556H118L233 690H302L414 556Z" />
<glyph unicode="&#xf5;" glyph-name="otilde" horiz-adv-x="538" d="M499 240Q499 181 481 135T432 56T358 8T267 -9Q218 -9 177 6T105 52T57 127T39 230Q39 289 57 335T106 412T180 460T271 477Q320 477 361 462T433 417T481 343T499 240ZM407 235Q407 282 395
315T364 369T319 399T268 409Q242 409 217 401T173 373T143 320T131 235Q131 188 143 155T174 100T219 69T270 59Q296 59 321 67T365 96T395 150T407 235ZM117 556Q117 602 137 634T204 666Q225 666 241 659T272 644T301 629T331 622Q351 622 359 637T370 669H420Q420
648 415 629T400 594T374 569T337 559Q316 559 298 565T263 580T233 595T207 602Q186 602 178 589T167 556H117Z" />
<glyph unicode="&#xf6;" glyph-name="odieresis" horiz-adv-x="538" d="M499 240Q499 181 481 135T432 56T358 8T267 -9Q218 -9 177 6T105 52T57 127T39 230Q39 289 57 335T106 412T180 460T271 477Q320 477 361 462T433 417T481 343T499 240ZM407 235Q407 282
395 315T364 369T319 399T268 409Q242 409 217 401T173 373T143 320T131 235Q131 188 143 155T174 100T219 69T270 59Q296 59 321 67T365 96T395 150T407 235ZM131 623Q131 642 146 657T181 672Q201 672 216 657T231 623Q231 603 216 588T181 572Q161 572 146 587T131
623ZM297 623Q297 642 312 657T347 672Q367 672 382 657T397 623Q397 603 382 588T347 572Q327 572 312 587T297 623Z" />
<glyph unicode="&#xf7;" glyph-name="divide" horiz-adv-x="533" d="M203 92Q203 116 221 134T265 153Q290 153 308 135T326 92Q326 66 308 48T265 30Q240 30 222 48T203 92ZM203 416Q203 440 221 458T265 477Q290 477 308 459T326 416Q326 390 308 372T265 354Q240
354 222 372T203 416ZM493 284V223H40V284H493Z" />
<glyph unicode="&#xf8;" glyph-name="oslash" horiz-adv-x="538" d="M358 568L400 558L369 459Q426 433 462 380T499 240Q499 181 481 135T432 56T358 8T267 -9Q253 -9 240 -8T214 -4L187 -91L146 -80L174 8Q113 34 76 88T39 230Q39 289 57 335T106 412T180 460T271
477Q299 477 328 471L358 568ZM268 409Q242 409 217 401T173 373T143 320T131 235Q131 173 150 135T200 78L302 405Q294 407 285 408T268 409ZM407 235Q407 295 389 331T341 387L240 62Q255 59 270 59Q296 59 321 67T365 96T395 150T407 235Z" />
<glyph unicode="&#xf9;" glyph-name="ugrave" horiz-adv-x="539" d="M383 470H471V0H402L390 59H386Q360 30 322 11T232 -9Q159 -9 114 32T68 158V470H156V169Q156 139 163 118T183 85T213 67T250 61Q290 61 322 78T383 125V470ZM146 690H249L319 556H247L146 690Z" />
<glyph unicode="&#xfa;" glyph-name="uacute" horiz-adv-x="539" d="M383 470H471V0H402L390 59H386Q360 30 322 11T232 -9Q159 -9 114 32T68 158V470H156V169Q156 139 163 118T183 85T213 67T250 61Q290 61 322 78T383 125V470ZM287 556H215L285 690H388L287 556Z" />
<glyph unicode="&#xfb;" glyph-name="ucircumflex" horiz-adv-x="539" d="M383 470H471V0H402L390 59H386Q360 30 322 11T232 -9Q159 -9 114 32T68 158V470H156V169Q156 139 163 118T183 85T213 67T250 61Q290 61 322 78T383 125V470ZM415 556H339L269 640L199
556H119L234 690H303L415 556Z" />
<glyph unicode="&#xfc;" glyph-name="udieresis" horiz-adv-x="539" d="M383 470H471V0H402L390 59H386Q360 30 322 11T232 -9Q159 -9 114 32T68 158V470H156V169Q156 139 163 118T183 85T213 67T250 61Q290 61 322 78T383 125V470ZM136 623Q136 642 151 657T186
672Q206 672 221 657T236 623Q236 603 221 588T186 572Q166 572 151 587T136 623ZM302 623Q302 642 317 657T352 672Q372 672 387 657T402 623Q402 603 387 588T352 572Q332 572 317 587T302 623Z" />
<glyph unicode="&#xfd;" glyph-name="yacute" horiz-adv-x="461" d="M9 470H103L203 201L237 89H239L273 201L364 470H454L273 -40Q243 -125 198 -173T89 -243L51 -173Q98 -155 134 -121T191 -27L200 0L9 470ZM249 556H177L247 690H350L249 556Z" />
<glyph unicode="&#xfe;" glyph-name="thorn" horiz-adv-x="541" d="M502 235Q502 179 485 134T439 57T371 8T288 -9Q246 -9 215 -1T156 30V-160H69V710H156V414Q188 448 226 462T307 477Q397 477 449 413T502 235ZM410 234Q410 312 377 358T284 405Q246 405 215
390T156 343V109Q177 85 203 72T265 59Q293 59 319 69T366 100T398 155T410 234Z" />
<glyph unicode="&#xff;" glyph-name="ydieresis" horiz-adv-x="461" d="M9 470H103L203 201L237 89H239L273 201L364 470H454L273 -40Q243 -125 198 -173T89 -243L51 -173Q98 -155 134 -121T191 -27L200 0L9 470ZM94 623Q94 642 109 657T144 672Q164 672 179 657T194
623Q194 603 179 588T144 572Q124 572 109 587T94 623ZM260 623Q260 642 275 657T310 672Q330 672 345 657T360 623Q360 603 345 588T310 572Q290 572 275 587T260 623Z" />
<glyph unicode="&#x2013;" glyph-name="endash" horiz-adv-x="521" d="M467 249V188H54V249H467Z" />
<glyph unicode="&#x2014;" glyph-name="emdash" horiz-adv-x="934" d="M880 248V188H54V248H880Z" />
<glyph unicode="&#x2018;" glyph-name="quoteleft" horiz-adv-x="204" d="M113 610Q139 607 152 588T165 546Q165 522 150 503T104 484Q92 484 79 488T55 504T37 534T30 582Q30 636 61 679T140 749L169 709Q143 695 123 672T95 613L113 610Z" />
<glyph unicode="&#x2019;" glyph-name="quoteright" horiz-adv-x="204" d="M91 623Q65 626 52 645T39 687Q39 711 55 730T102 749Q114 749 126 745T149 730T167 701T174 654Q174 600 143 555T64 484L35 524Q61 538 81 561T109 620L91 623Z" />
<glyph unicode="&#x201a;" glyph-name="quotesinglbase" horiz-adv-x="190" d="M77 -6Q51 -3 38 16T25 58Q25 82 41 101T88 120Q100 120 112 116T135 101T153 72T160 25Q160 -29 129 -74T50 -145L21 -105Q47 -91 67 -68T95 -9L77 -6Z" />
<glyph unicode="&#x201c;" glyph-name="quotedblleft" horiz-adv-x="399" d="M113 610Q139 607 152 588T165 546Q165 522 150 503T104 484Q92 484 79 488T55 504T37 534T30 582Q30 636 61 679T140 749L169 709Q143 695 123 672T95 613L113 610ZM308 610Q334 607
347 588T360 546Q360 522 345 503T299 484Q287 484 274 488T250 504T232 534T225 582Q225 636 256 679T335 749L364 709Q338 695 318 672T290 613L308 610Z" />
<glyph unicode="&#x201d;" glyph-name="quotedblright" horiz-adv-x="399" d="M91 623Q65 626 52 645T39 687Q39 711 55 730T102 749Q114 749 126 745T149 730T167 701T174 654Q174 600 143 555T64 484L35 524Q61 538 81 561T109 620L91 623ZM286 623Q260 626
247 645T234 687Q234 711 250 730T297 749Q309 749 321 745T344 730T362 701T369 654Q369 600 338 555T259 484L230 524Q256 538 276 561T304 620L286 623Z" />
<glyph unicode="&#x201e;" glyph-name="quotedblbase" horiz-adv-x="385" d="M77 -6Q51 -3 38 16T25 58Q25 82 41 101T88 120Q100 120 112 116T135 101T153 72T160 25Q160 -29 129 -74T50 -145L21 -105Q47 -91 67 -68T95 -9L77 -6ZM272 -6Q246 -3 233 16T220 58Q220
82 236 101T283 120Q295 120 307 116T330 101T348 72T355 25Q355 -29 324 -74T245 -145L216 -105Q242 -91 262 -68T290 -9L272 -6Z" />
<glyph unicode="&#x2022;" glyph-name="bullet" horiz-adv-x="369" d="M60 266Q60 291 70 314T97 354T136 381T185 391Q210 391 233 381T273 354T300 314T310 266Q310 240 300 218T273 178T233 151T185 141Q159 141 137 151T97 178T70 217T60 266Z" />
<glyph unicode="&#x2039;" glyph-name="guilsinglleft" horiz-adv-x="314" d="M194 76L46 236L194 397H270L134 236L270 76H194Z" />
<glyph unicode="&#x203a;" glyph-name="guilsinglright" horiz-adv-x="309" d="M46 76L182 236L46 397H122L270 236L122 76H46Z" />
</font>
</defs>
</svg>
