<?xml version="1.0" standalone="no"?>
<!DOCTYPE svg PUBLIC "-//W3C//DTD SVG 1.1//EN" "http://www.w3.org/Graphics/SVG/1.1/DTD/svg11.dtd">
<svg xmlns="http://www.w3.org/2000/svg">
<defs >
<font id="Mukta" horiz-adv-x="652" ><font-face
    font-family="Mukta Light"
    units-per-em="1000"
    panose-1="2 11 0 0 0 0 0 0 0 0"
    ascent="1130"
    descent="-532"
    alphabetic="0" />
<glyph unicode=" " glyph-name="space" horiz-adv-x="217" />
<glyph unicode="!" glyph-name="exclam" horiz-adv-x="227" d="M78 710H152L141 199H85L78 710ZM63 45Q63 68 78 83T114 98Q134 98 149 83T164 45Q164 20 149 6T114 -9Q93 -9 78 5T63 45Z" />
<glyph unicode="&quot;" glyph-name="quotedbl" horiz-adv-x="309" d="M190 645H258L244 428H202L190 645ZM51 645H119L106 428H64L51 645Z" />
<glyph unicode="#" glyph-name="numbersign" horiz-adv-x="620" d="M254 479L220 273H384L418 479H254ZM461 740H516L481 532H586V479H473L439 273H552V219H431L395 0H340L376 219H212L176 0H121L157 219H35V273H166L200 479H70V532H209L243 740H297L263 531H427L461
740Z" />
<glyph unicode="$" glyph-name="dollar" horiz-adv-x="525" d="M237 720H292V612Q324 609 356 601T420 577L399 523Q364 541 330 549T261 557Q205 557 172 532T138 463Q138 441 145 426T166 399T202 378T252 359L310 339Q382 316 417 277T453 178Q453 109 406
66T277 16V-94H222V16Q179 18 142 28T69 58L95 112Q133 90 173 81T248 72Q310 72 346 98T382 171Q382 211 357 237T265 285L208 303Q178 313 152 326T107 357T78 400T67 456Q67 524 112 565T237 612V720Z" />
<glyph unicode="%" glyph-name="percent" horiz-adv-x="815" d="M167 0L604 750H659L222 0H167ZM784 178Q784 140 774 106T743 47T692 6T621 -9Q582 -9 552 6T502 46T472 106T462 178Q462 216 472 249T504 308T555 349T624 364Q663 364 693 349T743 309T773 250T784
178ZM725 178Q725 207 720 232T702 277T671 308T624 320Q598 320 579 310T547 280T528 234T521 178Q521 148 527 122T545 77T576 46T621 35Q673 35 699 73T725 178ZM352 564Q352 526 342 492T311 433T260 392T189 377Q150 377 120 392T70 432T40 492T30 564Q30
602 40 635T72 694T123 735T192 750Q231 750 261 735T311 695T341 636T352 564ZM293 564Q293 592 288 618T270 663T239 694T192 706Q166 706 147 695T115 665T96 620T89 564Q89 534 95 508T113 462T144 432T189 421Q241 421 267 459T293 564Z" />
<glyph unicode="&amp;" glyph-name="ampersand" horiz-adv-x="640" d="M100 185Q100 120 145 84T265 47Q293 47 319 54T368 72T408 97T437 126L230 338Q169 313 135 276T100 185ZM30 183Q30 258 74 304T193 379Q164 410 143 447T121 531Q121 564 134 590T169 633T221
660T283 670Q317 670 346 660T396 632T428 588T440 531Q440 480 413 444T336 383L302 424Q334 441 353 466T372 527Q372 565 348 590T280 616Q234 616 212 591T190 531Q190 507 196 487T215 447T243 410T280 371L473 175Q488 199 505 237T535 314L592 291Q577 246
556 204T515 132L645 0H560L478 84Q461 65 439 48T390 19T330 -1T256 -8Q206 -8 165 6T93 46T47 107T30 183Z" />
<glyph unicode="&apos;" glyph-name="quotesingle" horiz-adv-x="170" d="M51 645H119L105 428H63L51 645Z" />
<glyph unicode="(" glyph-name="parenleft" horiz-adv-x="293" d="M209 -153Q179 -112 151 -66T100 34T64 148T50 279Q50 349 64 411T101 528T152 628T211 710L253 680Q193 595 157 497T120 279Q120 219 129 167T155 65T196 -32T253 -128L209 -153Z" />
<glyph unicode=")" glyph-name="parenright" horiz-adv-x="293" d="M84 710Q114 669 142 623T193 523T229 409T243 278Q243 208 229 146T192 29T141 -71T82 -153L40 -124Q100 -39 136 59T173 278Q173 338 164 390T138 492T97 588T40 684L84 710Z" />
<glyph unicode="*" glyph-name="asterisk" horiz-adv-x="340" d="M59 409L98 461L154 517L75 531L14 550L29 596L89 578L164 542L150 622V684H200V622L186 542L260 579L320 597L335 550L274 531L195 517L251 461L289 409L249 380L212 432L175 502L138 432L99 380L59 409Z" />
<glyph unicode="+" glyph-name="plus" horiz-adv-x="562" d="M522 332V279H308V65H253V279H40V332H253V547H308V332H522Z" />
<glyph unicode="," glyph-name="comma" horiz-adv-x="188" d="M95 -9Q74 -6 62 9T49 47Q49 68 63 83T101 99Q111 99 121 96T141 83T155 59T161 19Q161 -31 131 -72T58 -137L33 -103Q62 -88 81 -65T107 -11L95 -9Z" />
<glyph unicode="-" glyph-name="hyphen" horiz-adv-x="280" d="M250 323V261H30V323H250Z" />
<glyph unicode="." glyph-name="period" horiz-adv-x="178" d="M47 45Q47 68 61 83T97 98Q118 98 132 83T147 45Q147 20 133 6T97 -9Q76 -9 62 5T47 45Z" />
<glyph unicode="/" glyph-name="slash" horiz-adv-x="375" d="M-1 -109L317 750H378L60 -109H-1Z" />
<glyph unicode="0" glyph-name="zero" horiz-adv-x="575" d="M288 638Q339 638 382 619T458 561T509 460T528 315Q528 231 509 170T456 69T380 10T288 -9Q238 -9 194 10T118 68T67 169T48 315Q48 396 67 456T120 557T196 618T288 638ZM120 315Q120 237 134 186T172
104T226 60T290 47Q323 47 353 61T406 107T442 190T456 315Q456 392 442 443T404 526T350 570T286 583Q253 583 223 569T170 523T134 440T120 315Z" />
<glyph unicode="1" glyph-name="one" horiz-adv-x="351" d="M210 630H261V0H193V555L71 500L55 559L210 630Z" />
<glyph unicode="2" glyph-name="two" horiz-adv-x="479" d="M222 581Q189 581 156 570T87 530L56 577Q101 615 142 626T222 638Q271 638 307 624T368 586T404 528T416 455Q416 419 403 382T363 306T298 224T209 130L135 57H436V0H57L45 48L129 131Q188 190 229
235T295 317T332 386T344 452Q344 510 314 545T222 581Z" />
<glyph unicode="3" glyph-name="three" horiz-adv-x="490" d="M53 591Q91 617 132 627T212 638Q254 638 288 626T347 592T386 541T400 476Q400 417 370 378T294 323Q322 317 345 303T386 270T412 225T422 172Q422 122 403 88T352 32T280 1T199 -9Q157 -9 115 -1T42
23L58 77Q90 63 122 56T198 48Q226 48 253 55T302 77T337 116T350 173Q350 231 307 261T198 291H122V345H180Q211 345 238 353T286 376T318 415T330 469Q330 518 297 550T207 582Q172 582 143 574T75 543L53 591Z" />
<glyph unicode="4" glyph-name="four" horiz-adv-x="536" d="M328 630H397V223H501V165H397V0H330V165H20V207L328 630ZM101 223H330V424L335 558H333L264 448L101 223Z" />
<glyph unicode="5" glyph-name="five" horiz-adv-x="507" d="M422 632V574L179 572L158 380Q169 382 186 384T224 386Q263 386 302 375T371 341T421 283T440 198Q440 153 424 116T377 50T301 7T199 -9Q164 -9 127 -2T63 20L79 76Q102 63 133 56T197 49Q235 49
266 58T320 85T355 130T368 195Q368 261 322 297T200 334Q172 334 146 331T93 321L124 630L422 632Z" />
<glyph unicode="6" glyph-name="six" horiz-adv-x="514" d="M314 638Q349 638 376 634T431 619L414 563Q393 572 370 577T319 582Q226 582 173 515T115 333Q138 368 181 391T278 414Q319 414 355 401T419 361T463 297T479 210Q479 161 463 121T419 52T351 7T266
-9Q224 -9 184 7T114 58T64 150T45 289Q45 383 68 449T128 558T214 619T314 638ZM117 230Q117 189 128 155T160 97T207 60T268 46Q298 46 324 57T369 90T398 141T409 207Q409 284 369 321T264 358Q213 358 178 333T126 272Q121 261 119 253T117 230Z" />
<glyph unicode="7" glyph-name="seven" horiz-adv-x="495" d="M449 630V584L167 -14L106 13L376 572H57V630H449Z" />
<glyph unicode="8" glyph-name="eight" horiz-adv-x="505" d="M254 638Q302 638 338 625T398 590T435 540T448 481Q448 436 420 397T325 333Q394 307 429 268T464 169Q464 126 448 93T404 38T337 3T254 -9Q209 -9 170 3T102 37T57 90T40 162Q40 224 73 262T175
328Q120 351 91 388T61 476Q61 509 73 538T109 590T170 625T254 638ZM129 479Q129 454 139 434T165 399T204 374T252 356Q279 363 302 374T342 401T369 436T379 480Q379 504 369 523T342 556T302 577T254 584Q192 584 161 553T129 479ZM247 301Q186 286 148 254T109
165Q109 141 118 120T145 82T190 56T254 46Q287 46 313 55T358 81T386 119T396 165Q396 219 355 252T247 301Z" />
<glyph unicode="9" glyph-name="nine" horiz-adv-x="512" d="M203 -9Q161 -9 132 -4T79 13L96 69Q116 60 142 54T200 48Q388 48 396 290Q374 258 333 237T237 215Q195 215 159 229T96 269T54 333T38 421Q38 472 54 512T99 580T167 623T251 638Q293 638 332 622T401
570T449 478T467 341Q467 245 447 178T392 70T308 10T203 -9ZM395 388Q395 424 385 459T356 521T309 566T246 583Q185 583 147 541T108 425Q108 348 147 310T250 271Q301 271 336 294T387 352Q392 363 393 371T395 388Z" />
<glyph unicode=":" glyph-name="colon" horiz-adv-x="203" d="M51 45Q51 68 66 83T102 98Q122 98 137 83T152 45Q152 20 137 6T102 -8Q81 -8 66 6T51 45ZM51 354Q51 377 66 392T102 407Q122 407 137 392T152 354Q152 329 137 315T102 300Q81 300 66 314T51 354Z" />
<glyph unicode=";" glyph-name="semicolon" horiz-adv-x="208" d="M51 354Q51 377 66 392T102 407Q122 407 137 392T152 354Q152 329 137 315T102 300Q81 300 66 314T51 354ZM97 -9Q76 -6 64 9T51 47Q51 68 65 83T103 99Q113 99 123 96T143 83T157 59T163 19Q163
-31 133 -72T60 -137L35 -103Q64 -88 83 -65T109 -11L97 -9Z" />
<glyph unicode="&lt;" glyph-name="less" horiz-adv-x="496" d="M66 230V278L430 488V426L126 254L430 82V20L66 230Z" />
<glyph unicode="=" glyph-name="equal" horiz-adv-x="463" d="M423 248V195H40V248H423ZM423 417V364H40V417H423Z" />
<glyph unicode="&gt;" glyph-name="greater" horiz-adv-x="496" d="M66 82L370 254L66 426V488L430 278V230L66 20V82Z" />
<glyph unicode="?" glyph-name="question" horiz-adv-x="432" d="M200 715Q288 715 337 669T387 550Q387 497 355 453T278 367Q255 347 240 330T214 298T199 267T194 233Q194 204 203 177L144 166Q138 178 135 197T131 234Q131 275 152 313T224 398Q244 417 261
435T290 471T310 508T317 549Q317 570 311 589T290 623T252 647T194 656Q168 656 141 649T87 623L58 674Q87 695 126 705T200 715ZM133 45Q133 68 148 82T184 97Q204 97 219 83T234 45Q234 20 219 6T184 -9Q163 -9 148 5T133 45Z" />
<glyph unicode="@" glyph-name="at" horiz-adv-x="964" d="M570 62H568Q539 31 502 11T407 -9Q376 -9 351 0T307 26T279 66T269 116Q269 159 287 190T336 240T407 268T493 277H592L599 317Q602 333 602 347Q602 388 578 403T511 419Q486 419 446 410T359 376L340
428Q391 452 434 464T525 476Q557 476 583 469T629 447T659 408T670 349Q670 339 669 328T666 306L640 146Q638 131 636 119T634 95Q634 72 642 62T672 51Q705 51 736 70T792 126T832 213T848 330Q848 394 827 450T767 548T670 614T539 638Q448 638 371 606T238
515T150 369T118 175Q118 81 148 16T228 -89T338 -147T460 -165Q524 -165 574 -153T663 -124L677 -173Q635 -191 577 -205T449 -219Q377 -219 306 -198T178 -131T86 -10T51 170Q51 293 90 390T196 554T350 656T535 692Q627 692 698 665T817 589T891 476T916 333Q916
246 892 183T831 79T749 19T660 -1Q634 -1 616 3T587 12L570 62ZM585 227L502 225Q414 223 378 195T342 120Q342 83 366 64T429 45Q477 45 510 66T566 116L585 227Z" />
<glyph unicode="A" glyph-name="A" horiz-adv-x="583" d="M176 238H404L354 373Q340 408 325 452T293 550H291Q283 524 275 501T260 457T245 416T228 373L176 238ZM260 630H327L571 0H495L426 180H156L87 0H12L260 630Z" />
<glyph unicode="B" glyph-name="B" horiz-adv-x="517" d="M249 630Q343 630 395 590T448 471Q448 413 416 381T334 335Q362 330 386 318T428 285T456 238T467 176Q467 137 451 105T404 49T332 13T240 0H80V630H249ZM152 360H228Q256 360 282 365T329 382T362 414T374
466Q374 522 336 547T235 572H152V360ZM152 58H230Q263 58 292 64T343 86T378 125T391 185Q391 219 377 241T340 277T286 297T223 303H152V58Z" />
<glyph unicode="C" glyph-name="C" horiz-adv-x="544" d="M348 50Q397 50 429 59T491 82L508 24Q475 8 436 0T339 -9Q277 -9 223 12T128 74T64 175T40 314Q40 391 62 451T125 553T221 616T341 638Q400 638 439 629T511 602L494 546Q459 563 427 571T352 579Q305
579 263 564T188 517T137 435T117 313Q117 240 136 190T188 109T262 64T348 50Z" />
<glyph unicode="D" glyph-name="D" horiz-adv-x="622" d="M275 630Q339 630 394 611T490 555T553 461T576 329Q576 238 549 175T476 73T369 17T240 0H80V630H275ZM152 59H231Q281 59 329 70T415 112T476 195T499 329Q499 387 482 432T433 508T356 555T257 571H152V59Z" />
<glyph unicode="E" glyph-name="E" horiz-adv-x="494" d="M80 630H450V571H152V355H424V296H152V59H453V0H80V630Z" />
<glyph unicode="F" glyph-name="F" horiz-adv-x="475" d="M440 630V571H152V343H418V285H152V0H80V630H440Z" />
<glyph unicode="G" glyph-name="G" horiz-adv-x="599" d="M351 638Q405 638 447 630T527 602L509 545Q474 562 438 571T362 580Q314 580 271 566T194 521T141 438T121 314Q121 251 138 202T186 119T261 68T357 50Q395 50 423 55T472 68V268H345V324H541V25Q504
10 461 1T354 -9Q290 -9 234 12T136 74T70 175T45 314Q45 393 68 454T132 555T229 617T351 638Z" />
<glyph unicode="H" glyph-name="H" horiz-adv-x="622" d="M80 0V630H152V356H471V630H543V0H471V296H152V0H80Z" />
<glyph unicode="I" glyph-name="I" horiz-adv-x="231" d="M152 630V0H80V630H152Z" />
<glyph unicode="J" glyph-name="J" horiz-adv-x="259" d="M187 630V109Q187 43 180 2T151 -70Q137 -91 118 -105T76 -128T31 -141T-15 -145V-89Q44 -88 78 -55Q101 -34 108 -2T115 68V630H187Z" />
<glyph unicode="K" glyph-name="K" horiz-adv-x="544" d="M80 0V630H152V325L434 630H524L265 352L546 0H455L215 303L152 235V0H80Z" />
<glyph unicode="L" glyph-name="L" horiz-adv-x="446" d="M80 630H152V60H431V0H80V630Z" />
<glyph unicode="M" glyph-name="M" horiz-adv-x="796" d="M123 630H217L363 197Q371 174 380 145T398 89H400Q408 115 417 143T434 197L577 630H672L732 0H660L629 347Q624 400 621 451T615 556H613Q599 508 583 454T549 347L430 0H365L246 348Q228 401 212 451T182
556H180Q177 508 173 454T164 347L134 0H64L123 630Z" />
<glyph unicode="N" glyph-name="N" horiz-adv-x="647" d="M80 630H145L426 223Q445 195 463 167T499 111H501Q499 148 499 184T498 258V630H568V0H503L228 395Q207 425 187 459T148 528H146Q148 483 149 440T150 351V0H80V630Z" />
<glyph unicode="O" glyph-name="O" horiz-adv-x="666" d="M335 638Q395 638 447 618T538 558T598 457T620 315Q620 236 598 176T536 74T444 12T331 -9Q271 -9 219 11T128 72T68 173T46 315Q46 394 68 454T130 555T221 617T335 638ZM123 315Q123 247 140 197T186
114T253 65T335 49Q378 49 415 65T481 114T526 197T543 315Q543 384 526 434T480 517T413 564T331 580Q288 580 251 564T185 515T140 432T123 315Z" />
<glyph unicode="P" glyph-name="P" horiz-adv-x="512" d="M80 630H265Q311 630 350 618T417 583T461 525T477 444Q477 397 460 362T414 303T344 267T255 255H152V0H80V630ZM152 314H224Q263 314 296 320T352 340T388 380T401 443Q401 480 388 505T353 545T303
566T246 572H152V314Z" />
<glyph unicode="Q" glyph-name="Q" horiz-adv-x="661" d="M332 638Q395 638 447 618T538 558T597 457T618 315Q618 215 578 138T443 8L299 -73Q329 -73 356 -80T410 -97T466 -113T530 -121Q550 -121 574 -114T616 -95L643 -146Q617 -163 587 -171T527 -179Q491
-179 459 -171T395 -152T332 -134T268 -125Q212 -125 159 -156L130 -104L300 -6Q242 -1 196 23T116 88T65 186T47 315Q47 394 69 454T129 555T219 617T332 638ZM124 315Q124 247 140 197T183 113T248 64T329 47Q373 47 412 64T479 116T524 200T541 315Q541 384
525 434T481 517T414 564T330 580Q288 580 251 564T185 515T141 432T124 315Z" />
<glyph unicode="R" glyph-name="R" horiz-adv-x="528" d="M80 630H274Q323 630 360 617T423 579T461 522T474 448Q474 412 463 383T434 331T391 294T341 270L512 0H430L274 257H147V0H80V630ZM147 315H243Q276 315 304 322T354 346T387 386T399 445Q399 511 362
541T251 572H147V315Z" />
<glyph unicode="S" glyph-name="S" horiz-adv-x="494" d="M251 638Q296 638 337 630T420 603L402 544Q359 564 325 572T254 580Q193 580 156 553T119 475Q119 431 147 406T234 361L301 339Q378 313 413 269T449 167Q449 126 434 94T390 39T323 4T237 -9Q189 -9
142 0T46 31L65 90Q107 69 147 60T233 50Q294 50 334 77T375 160Q375 180 370 197T350 230T312 258T251 284L186 305Q123 325 84 363T45 466Q45 545 98 591T251 638Z" />
<glyph unicode="T" glyph-name="T" horiz-adv-x="501" d="M492 630V570H285V0H213V570H10V630H492Z" />
<glyph unicode="U" glyph-name="U" horiz-adv-x="626" d="M75 630H147V253Q147 143 187 97T316 50Q359 50 390 64T440 103T469 163T479 241V630H551V244Q551 114 490 53T316 -9Q203 -9 139 52T75 249V630Z" />
<glyph unicode="V" glyph-name="V" horiz-adv-x="561" d="M80 630L216 261Q232 219 249 174T280 86H282Q297 131 313 175T345 261L483 630H559L314 0H244L3 630H80Z" />
<glyph unicode="W" glyph-name="W" horiz-adv-x="831" d="M82 630L188 259Q199 222 210 175T229 86H231Q239 128 251 174T274 259L383 630H449L561 259Q572 221 583 175T605 86H607Q615 130 626 176T648 259L750 630H823L642 0H569L460 378Q449 420 437 460T416
538H414Q406 504 397 471T379 405L266 0H194L8 630H82Z" />
<glyph unicode="X" glyph-name="X" horiz-adv-x="526" d="M99 630L261 369L430 630H511L303 320L521 0H436L261 271L87 0H6L216 320L15 630H99Z" />
<glyph unicode="Y" glyph-name="Y" horiz-adv-x="510" d="M93 630L261 332L430 630H510L295 264V0H223V264L12 630H93Z" />
<glyph unicode="Z" glyph-name="Z" horiz-adv-x="508" d="M476 630V586L112 58H481V0H26V49L385 572H41V630H476Z" />
<glyph unicode="[" glyph-name="bracketleft" horiz-adv-x="291" d="M81 -150V715H261V664H147V-98H261V-150H81Z" />
<glyph unicode="\" glyph-name="backslash" horiz-adv-x="313" d="M254 -88L-2 720H57L313 -88H254Z" />
<glyph unicode="]" glyph-name="bracketright" horiz-adv-x="291" d="M30 -150V-99H144V663H30V715H210V-150H30Z" />
<glyph unicode="^" glyph-name="asciicircum" horiz-adv-x="496" d="M436 416H375L248 669L123 416H61L223 720H272L436 416Z" />
<glyph unicode="_" glyph-name="underscore" horiz-adv-x="366" d="M356 -200V-250H10V-200H356Z" />
<glyph unicode="`" glyph-name="grave" horiz-adv-x="197" d="M22 720H95L177 555H125L22 720Z" />
<glyph unicode="a" glyph-name="a" horiz-adv-x="474" d="M69 428Q116 453 155 464T243 476Q279 476 309 468T362 439T397 387T410 306V0H356L345 57H343Q313 22 275 7T190 -9Q157 -9 129 0T80 28T48 71T36 127Q36 164 51 192T93 239T159 267T245 277H340V312Q340
372 312 395T238 419Q210 419 175 411T96 378L69 428ZM340 226L262 225Q179 223 144 196T109 130Q109 83 138 64T207 45Q242 45 278 61T340 116V226Z" />
<glyph unicode="b" glyph-name="b" horiz-adv-x="530" d="M490 235Q490 179 473 134T428 57T361 8T279 -9Q233 -9 200 4T136 44H134L126 0H74V710H144V411Q170 440 208 458T291 476Q334 476 371 461T434 414T475 338T490 235ZM417 234Q417 322 379 370T277 419Q237
419 203 399T144 349V99Q164 76 195 61T262 46Q292 46 320 58T369 93T404 152T417 234Z" />
<glyph unicode="c" glyph-name="c" horiz-adv-x="434" d="M284 44Q316 44 341 51T389 69L404 18Q350 -9 277 -9Q228 -9 185 6T110 51T59 127T40 234Q40 290 57 335T106 411T181 459T276 476Q307 476 336 472T402 451L386 397Q360 411 336 416T285 422Q207 422
160 373T112 237Q112 182 127 145T166 86T221 54T284 44Z" />
<glyph unicode="d" glyph-name="d" horiz-adv-x="519" d="M381 710H451V0H393L384 48H382Q356 20 324 6T243 -9Q205 -9 169 6T104 51T58 126T40 234Q40 289 54 334T96 410T163 459T253 476Q290 476 322 465T381 431V710ZM381 367Q359 393 329 407T267 422Q237
422 209 412T160 380T125 323T112 237Q112 185 124 149T158 90T205 57T260 46Q301 46 331 62T381 107V367Z" />
<glyph unicode="e" glyph-name="e" horiz-adv-x="488" d="M449 230H113V221Q113 138 158 92T281 46Q316 46 346 51T408 70L423 18Q395 6 358 -1T278 -9Q229 -9 186 5T111 48T59 124T40 234Q40 289 56 334T100 410T169 459T260 476Q303 476 337 462T397 420T435
355T449 271V230ZM377 282Q377 310 370 335T349 380T311 411T256 423Q198 423 161 385T115 281L377 282Z" />
<glyph unicode="f" glyph-name="f" horiz-adv-x="323" d="M243 715Q271 715 301 707T356 687L341 637Q321 647 300 652T259 658Q210 658 187 631T164 537V470H316V417H164V0H94V417H17V470H94V556Q94 634 133 674T243 715Z" />
<glyph unicode="g" glyph-name="g" horiz-adv-x="528" d="M56 314Q56 353 70 383T109 434T169 465T245 476Q262 476 275 474T302 470H501V417H457L373 426Q398 407 413 378T428 315Q428 276 414 246T376 194T317 163T243 152Q229 152 216 153T188 156Q165 148
153 133T140 100Q140 76 157 66T203 56H326Q404 56 445 22T486 -69Q486 -144 422 -187T248 -230Q148 -230 89 -193T30 -86Q30 -49 52 -24T114 15Q96 26 86 42T75 85Q75 117 93 138T141 173Q105 190 81 225T56 314ZM158 0Q131 -11 116 -30T100 -76Q100 -125 139
-149T251 -174Q295 -174 326 -166T378 -143T407 -110T416 -74Q416 -52 408 -38T384 -15T347 -3T301 0H158ZM356 312Q356 368 326 396T245 424Q194 424 161 397T128 316Q128 259 160 232T243 204Q293 204 324 231T356 312Z" />
<glyph unicode="h" glyph-name="h" horiz-adv-x="531" d="M144 0H74V710H144V408Q177 437 217 456T305 476Q344 476 373 465T420 433T448 385T458 324V0H388V305Q388 366 362 392T287 419Q252 419 216 401T144 351V0Z" />
<glyph unicode="i" glyph-name="i" horiz-adv-x="232" d="M81 0V470H151V0H81ZM116 591Q96 591 83 604T69 638Q69 659 82 672T116 686Q134 686 148 673T163 638Q163 616 149 604T116 591Z" />
<glyph unicode="j" glyph-name="j" horiz-adv-x="233" d="M83 470H153V72Q153 15 146 -32T122 -117T74 -184T-5 -235L-37 -184Q-4 -167 18 -149T55 -103T76 -37T83 62V470ZM117 591Q97 591 84 604T70 638Q70 659 83 672T117 686Q135 686 149 673T164 638Q164 616
150 604T117 591Z" />
<glyph unicode="k" glyph-name="k" horiz-adv-x="457" d="M144 172V0H74V710H144V250L356 470H443L248 272L452 0H369L202 230L144 172Z" />
<glyph unicode="l" glyph-name="l" horiz-adv-x="221" d="M76 0V710H145V0H76Z" />
<glyph unicode="m" glyph-name="m" horiz-adv-x="814" d="M142 0H72V470H124L135 405Q168 438 206 457T297 477Q347 477 379 457T427 400Q462 437 504 457T597 477Q669 477 705 437T742 324V0H672V308Q672 362 650 390T570 419Q536 419 502 402T441 354Q442 347
442 339T442 324V0H372V308Q372 362 350 390T272 419Q237 419 204 401T142 351V0Z" />
<glyph unicode="n" glyph-name="n" horiz-adv-x="524" d="M142 0H72V470H125L136 405Q171 438 209 457T298 476Q370 476 411 436T452 324V0H382V311Q382 358 358 388T278 419Q243 419 207 402T142 352V0Z" />
<glyph unicode="o" glyph-name="o" horiz-adv-x="520" d="M480 240Q480 181 463 135T416 56T346 8T259 -9Q212 -9 172 6T103 52T57 127T40 230Q40 289 57 335T105 412T175 460T263 476Q309 476 349 461T418 416T463 342T480 240ZM407 235Q407 284 395 319T362
377T315 410T260 421Q232 421 206 411T159 379T126 322T113 235Q113 184 125 148T159 90T207 57T262 46Q290 46 316 55T362 87T395 146T407 235Z" />
<glyph unicode="p" glyph-name="p" horiz-adv-x="523" d="M253 -9Q221 -9 192 0T141 24V-230H72V476H130L140 416Q165 440 199 458T282 476Q327 476 364 461T427 417T468 344T483 246Q483 180 464 132T412 53T338 6T253 -9ZM267 419Q245 419 226 413T190 398T162
377T141 354V79Q164 62 190 54T244 46Q275 46 305 56T358 90T395 152T410 245Q410 327 375 373T267 419Z" />
<glyph unicode="q" glyph-name="q" horiz-adv-x="525" d="M381 34Q355 11 324 1T252 -9Q202 -9 163 8T96 57T55 134T40 235Q40 287 54 331T95 407T163 458T254 476Q290 476 326 462T386 421L395 470H451V-230H381V34ZM381 363Q363 386 334 404T265 422Q234 422
206 411T157 378T124 321T112 238Q112 141 153 94T264 46Q302 46 332 61T381 98V363Z" />
<glyph unicode="r" glyph-name="r" horiz-adv-x="363" d="M70 0V470H120L133 376Q150 421 190 448T281 476Q306 476 324 472T353 463L340 401Q328 407 313 411T278 415Q249 415 224 405T180 374T150 323T139 252V0H70Z" />
<glyph unicode="s" glyph-name="s" horiz-adv-x="401" d="M324 396Q295 410 269 416T213 422Q162 422 137 402T112 350Q112 321 131 305T205 272L235 263Q297 244 329 212T362 129Q362 69 317 30T188 -9Q143 -9 105 -2T39 20L57 75Q84 61 115 54T183 46Q234 46
262 65T291 123Q291 155 269 173T196 208L164 218Q102 238 72 268T42 346Q42 375 54 399T88 440T139 466T205 476Q238 476 274 470T341 450L324 396Z" />
<glyph unicode="t" glyph-name="t" horiz-adv-x="361" d="M315 417H167V126Q167 85 186 71T238 57Q263 57 287 62T329 73L340 20Q320 12 290 6T225 0Q97 0 97 117V417H20V470H97V620H167V470H315V417Z" />
<glyph unicode="u" glyph-name="u" horiz-adv-x="529" d="M387 470H457V0H404L394 59H391Q365 31 326 11T235 -9Q162 -9 117 31T72 156V470H142V167Q142 132 150 109T172 72T206 53T249 47Q292 47 327 66T387 115V470Z" />
<glyph unicode="v" glyph-name="v" horiz-adv-x="435" d="M347 470H422L252 0H186L14 470H89L197 142L218 58H221L241 141L347 470Z" />
<glyph unicode="w" glyph-name="w" horiz-adv-x="684" d="M11 470H84L165 174L188 56H191L219 174L305 470H380L465 174L493 56H496L523 174L603 470H673L535 0H455L370 298L342 419L313 298L226 0H151L11 470Z" />
<glyph unicode="x" glyph-name="x" horiz-adv-x="428" d="M254 238L419 0H339L258 118L211 192L167 120L88 0H11L174 238L18 470H97L179 344L217 281L255 347L332 470H408L254 238Z" />
<glyph unicode="y" glyph-name="y" horiz-adv-x="444" d="M10 470H84L195 179L230 70H232L265 179L365 470H435L254 -40Q225 -121 182 -167T77 -237L48 -183Q97 -163 133 -128T191 -27L200 0L10 470Z" />
<glyph unicode="z" glyph-name="z" horiz-adv-x="411" d="M382 430L110 54H387V0H25V44L294 415H42V470H382V430Z" />
<glyph unicode="{" glyph-name="braceleft" horiz-adv-x="326" d="M301 649Q247 649 218 620T189 536V393Q189 347 173 319T116 278V276Q154 259 171 224T189 135V-7Q189 -49 217 -73T301 -99V-150Q223 -149 175 -110T126 4V155Q126 200 103 225T28 252V301Q79
306 102 328T126 395V555Q126 586 137 612T171 658T226 689T301 700V649Z" />
<glyph unicode="|" glyph-name="bar" horiz-adv-x="205" d="M72 -230V750H133V-230H72Z" />
<glyph unicode="}" glyph-name="braceright" horiz-adv-x="326" d="M25 702Q106 702 153 661T200 551V395Q200 350 223 327T298 299V250Q247 246 224 223T200 155V1Q200 -66 153 -107T25 -150V-98Q79 -96 108 -71T137 3V146Q137 196 154 227T210 274V276Q171 291
154 322T137 404V546Q137 595 109 621T25 650V702Z" />
<glyph unicode="~" glyph-name="asciitilde" horiz-adv-x="586" d="M48 210Q48 280 86 316T184 353Q216 353 245 340T301 311T354 282T408 269Q448 269 468 293T489 361H538Q538 319 527 291T497 246T457 221T411 214Q378 214 349 227T292 257T238 286T183 300Q141
300 119 274T97 210H48Z" />
<glyph unicode="&#xa0;" glyph-name="uni00A0" horiz-adv-x="217" />
<glyph unicode="&#xa1;" glyph-name="exclamdown" horiz-adv-x="226" d="M63 410Q63 435 78 449T114 463Q135 463 149 449T164 410Q164 387 150 372T114 357Q93 357 79 372T63 410ZM76 -255L85 256H141L150 -255H76Z" />
<glyph unicode="&#xa2;" glyph-name="cent" horiz-adv-x="505" d="M311 121Q343 121 369 128T418 146L433 95Q410 84 386 78T333 69V-20H271V70Q226 74 189 91T123 137T80 209T64 306Q64 409 120 471T271 542V639H333V542Q357 540 381 535T431 518L415 465Q393
476 364 483T305 490Q225 490 181 444T136 309Q136 254 151 218T191 160T247 130T311 121Z" />
<glyph unicode="&#xa3;" glyph-name="sterling" horiz-adv-x="505" d="M75 0L60 45Q118 80 143 139T154 285H61V338H144Q140 360 137 387T133 442Q133 488 148 524T190 586T254 625T335 638Q372 638 404 631T452 614L436 561Q417 570 391 576T336 582Q267 582
234 545T200 441Q200 413 203 387T212 338H391V285H220Q228 206 214 152T157 62L158 59H460V0H75Z" />
<glyph unicode="&#xa4;" glyph-name="currency" horiz-adv-x="513" d="M68 76L35 110L119 194Q88 240 88 307Q88 341 96 369T118 419L36 502L69 535L151 453Q195 489 258 489Q287 489 313 479T361 452L444 535L478 502L393 417Q408 395 416 367T425 307Q425 271
417 243T394 192L477 109L444 76L361 158Q318 124 255 124Q225 124 199 133T151 159L68 76ZM368 307Q368 372 338 408T257 445Q207 445 176 411T145 307Q145 241 174 205T255 168Q278 168 298 176T334 202T359 245T368 307Z" />
<glyph unicode="&#xa5;" glyph-name="yen" horiz-adv-x="508" d="M472 220V168H288V0H218V168H32V220H218V264L192 308H32V360H163L9 630H90L255 327L422 630H502L343 360H472V308H313L288 264V220H472Z" />
<glyph unicode="&#xa6;" glyph-name="brokenbar" horiz-adv-x="220" d="M80 380V750H140V380H80ZM80 -180V188H140V-180H80Z" />
<glyph unicode="&#xa7;" glyph-name="section" horiz-adv-x="504" d="M81 12Q113 -3 145 -11T219 -19Q279 -19 309 5T339 67Q339 100 316 117T238 156L177 179Q116 202 87 234T57 314Q57 351 76 380T124 427Q112 440 105 458T97 500Q97 560 142 599T270 638Q308
638 343 632T411 610L395 558Q360 574 332 580T276 586Q221 586 193 565T164 506Q164 473 185 456T255 420L316 397Q379 373 412 340T446 259Q446 220 428 191T383 141Q394 127 400 110T406 72Q406 42 394 16T359 -30T303 -61T229 -72Q176 -72 137 -64T64 -40L81
12ZM380 251Q380 288 357 307T297 339L236 361Q217 369 199 376T165 394Q147 383 135 365T123 320Q123 283 146 265T206 232L267 210Q290 201 307 193T340 176Q357 188 368 208T380 251Z" />
<glyph unicode="&#xa8;" glyph-name="dieresis" horiz-adv-x="326" d="M34 623Q34 642 47 655T79 669Q97 669 110 656T124 623Q124 602 111 589T79 575Q60 575 47 588T34 623ZM202 623Q202 642 215 655T247 669Q265 669 278 656T292 623Q292 602 279 589T247 575Q228
575 215 588T202 623Z" />
<glyph unicode="&#xa9;" glyph-name="copyright" horiz-adv-x="706" d="M379 180Q420 180 454 197L467 156Q426 137 373 137Q337 137 305 148T249 180T211 235T197 312Q197 352 210 384T246 440T301 475T373 487Q395 487 416 484T465 469L452 427Q434 437 416
441T379 445Q321 445 287 411T252 314Q252 276 263 251T292 209T332 187T379 180ZM355 638Q419 638 476 618T576 558T644 457T670 315Q670 236 644 176T574 74T473 12T351 -9Q287 -9 230 11T130 72T62 173T36 315Q36 394 62 454T132 555T233 617T355 638ZM355 606Q299
606 248 587T159 532T97 441T74 315Q74 242 96 187T156 96T244 41T351 23Q407 23 458 42T547 98T609 189T632 315Q632 388 610 442T550 533T462 588T355 606Z" />
<glyph unicode="&#xaa;" glyph-name="ordfeminine" horiz-adv-x="322" d="M57 556Q89 573 114 580T171 588Q194 588 214 583T249 565T272 532T281 481V274H243L236 309H235Q215 287 190 278T136 268Q91 268 62 291T33 357Q33 406 71 431T173 456H233V486Q233 520
215 534T168 548Q151 548 128 543T75 521L57 556ZM233 422L182 420Q127 418 105 402T83 359Q83 327 103 317T146 306Q169 306 192 315T233 348V422Z" />
<glyph unicode="&#xab;" glyph-name="guillemotleft" horiz-adv-x="460" d="M363 76L215 236L363 397H429L293 236L429 76H363ZM186 76L38 236L186 397H252L116 236L252 76H186Z" />
<glyph unicode="&#xac;" glyph-name="logicalnot" horiz-adv-x="1445" />
<glyph unicode="&#xad;" glyph-name="uni00AD" horiz-adv-x="280" d="M250 323V261H30V323H250Z" />
<glyph unicode="&#xae;" glyph-name="registered" horiz-adv-x="532" d="M185 590H278Q318 590 340 570T362 517Q362 488 347 471T311 446L378 338H334L275 439H220V338H185V590ZM220 467H264Q292 467 308 479T325 516Q325 542 309 551T268 561H220V467ZM492 468Q492
411 476 369T429 297T358 254T267 239Q217 239 176 253T104 295T57 364T40 460Q40 516 56 558T103 629T174 672T265 686Q314 686 356 672T428 631T475 563T492 468ZM460 464Q460 515 444 552T402 613T340 649T265 661Q226 661 191 650T130 615T88 554T72 464Q72
413 86 375T127 312T188 275T267 263Q306 263 341 274T402 311T444 373T460 464Z" />
<glyph unicode="&#xaf;" glyph-name="overscore" horiz-adv-x="286" d="M256 660V613H31V660H256Z" />
<glyph unicode="&#xb0;" glyph-name="degree" horiz-adv-x="386" d="M354 467Q354 387 311 341T193 294Q123 294 80 340T36 467Q36 545 80 591T196 638Q230 638 259 626T309 592T342 538T354 467ZM297 467Q297 525 273 559T196 594Q145 594 119 562T93 467Q93
407 118 373T193 338Q237 338 267 368T297 467Z" />
<glyph unicode="&#xb1;" glyph-name="plusminus" horiz-adv-x="469" d="M404 51V0H65V51H404ZM434 366V315H260V141H209V315H35V366H209V540H260V366H434Z" />
<glyph unicode="&#xb2;" glyph-name="twosuperior" horiz-adv-x="314" d="M138 809Q114 809 91 802T39 778L13 820Q43 840 74 849T140 858Q209 858 246 823T284 734Q284 684 252 638T163 547L94 493H284V445H25L16 482L97 552Q128 579 152 601T192 645T216 687T224
732Q224 765 201 787T138 809Z" />
<glyph unicode="&#xb3;" glyph-name="threesuperior" horiz-adv-x="299" d="M21 835Q52 849 78 853T131 858Q158 858 182 850T224 828T252 793T263 748Q263 677 184 654V652Q226 644 251 619T277 557Q277 527 264 505T230 469T180 447T122 440Q96 440 64 445T10
458L23 503Q52 494 73 492T121 489Q139 489 156 493T186 506T207 528T215 561Q215 587 192 606T115 625H56V672H100Q152 672 177 691T202 743Q202 779 177 794T121 810Q79 810 38 791L21 835Z" />
<glyph unicode="&#xb4;" glyph-name="acute" horiz-adv-x="238" d="M83 555H31L119 720H195L83 555Z" />
<glyph unicode="&#xb5;" glyph-name="uni00B5" horiz-adv-x="520" d="M383 470H453V0H400L390 59H387Q361 31 322 11T230 -9Q171 -9 132 17L138 -58V-160H68V470H138V165Q138 131 146 109T168 73T202 53T245 47Q288 47 323 66T383 115V470Z" />
<glyph unicode="&#xb6;" glyph-name="paragraph" horiz-adv-x="539" d="M409 -180V584H313V-180H258V268Q152 268 99 318T45 454Q45 500 60 534T103 592T170 626T256 638H464V-180H409Z" />
<glyph unicode="&#xb7;" glyph-name="middot" horiz-adv-x="162" d="M31 331Q31 353 45 368T81 384Q102 384 116 369T131 331Q131 307 117 292T81 277Q60 277 46 292T31 331Z" />
<glyph unicode="&#xb8;" glyph-name="cedilla" horiz-adv-x="286" d="M128 0H174L149 -48Q194 -50 218 -69T242 -118Q242 -139 233 -154T209 -179T173 -195T131 -200Q108 -200 89 -197T57 -188L68 -150Q96 -160 124 -160Q153 -160 170 -151T187 -120Q187 -100
166 -89T91 -78L128 0Z" />
<glyph unicode="&#xb9;" glyph-name="onesuperior" horiz-adv-x="253" d="M146 851H185V445H128V787L35 745L22 794L146 851Z" />
<glyph unicode="&#xba;" glyph-name="ordmasculine" horiz-adv-x="839" />
<glyph unicode="&#xbb;" glyph-name="guillemotright" horiz-adv-x="460" d="M212 76L348 236L212 397H278L426 236L278 76H212ZM34 76L170 236L34 397H100L248 236L100 76H34Z" />
<glyph unicode="&#xbc;" glyph-name="onequarter" horiz-adv-x="817" d="M158 -9L566 639H621L213 -9H158ZM164 630H203V224H146V566L53 524L40 573L164 630ZM633 406H694V152H772V107H694V0H637V107H432V143L633 406ZM600 284L499 152H637V279L641 345H639L600 284Z" />
<glyph unicode="&#xbd;" glyph-name="onehalf" horiz-adv-x="835" d="M148 -9L556 639H611L203 -9H148ZM649 364Q625 364 602 357T550 333L524 375Q554 395 585 404T651 413Q720 413 757 378T795 289Q795 239 763 193T674 102L605 48H795V0H536L527 37L608 107Q639
134 663 156T703 200T727 242T735 287Q735 320 712 342T649 364ZM164 630H203V224H146V566L53 524L40 573L164 630Z" />
<glyph unicode="&#xbe;" glyph-name="threequarters" horiz-adv-x="873" d="M220 -9L628 639H683L275 -9H220ZM689 406H750V152H828V107H750V0H693V107H488V143L689 406ZM656 284L555 152H693V279L697 345H695L656 284ZM56 613Q87 627 113 631T166 636Q193 636
217 628T259 606T287 571T298 526Q298 455 219 432V430Q261 422 286 397T312 335Q312 305 299 283T265 247T215 225T157 218Q131 218 99 223T45 236L58 281Q87 272 108 270T156 267Q174 267 191 271T221 284T242 306T250 339Q250 365 227 384T150 403H91V450H135Q187
450 212 469T237 521Q237 557 212 572T156 588Q114 588 73 569L56 613Z" />
<glyph unicode="&#xbf;" glyph-name="questiondown" horiz-adv-x="440" d="M250 -249Q162 -249 113 -203T63 -84Q63 -31 94 13T172 99Q217 139 236 168T256 233Q256 263 246 289L306 300Q311 288 315 269T319 232Q319 191 298 153T226 68Q185 29 159 -5T133 -83Q133
-104 139 -123T160 -157T198 -181T255 -190Q281 -190 308 -183T363 -157L392 -208Q363 -229 324 -239T250 -249ZM317 421Q317 398 302 384T266 369Q245 369 231 383T216 421Q216 446 230 460T266 475Q287 475 302 461T317 421Z" />
<glyph unicode="&#xc0;" glyph-name="Agrave" horiz-adv-x="583" d="M159 834H242L327 710H270L159 834ZM176 238H404L354 373Q340 408 325 452T293 550H291Q283 524 275 501T260 457T245 416T228 373L176 238ZM260 630H327L571 0H495L426 180H156L87 0H12L260 630Z" />
<glyph unicode="&#xc1;" glyph-name="Aacute" horiz-adv-x="583" d="M317 710H260L345 834H428L317 710ZM176 238H404L354 373Q340 408 325 452T293 550H291Q283 524 275 501T260 457T245 416T228 373L176 238ZM260 630H327L571 0H495L426 180H156L87 0H12L260 630Z" />
<glyph unicode="&#xc2;" glyph-name="Acircumflex" horiz-adv-x="583" d="M263 844H322L447 710H377L292 801L207 710H141L263 844ZM176 238H404L354 373Q340 408 325 452T293 550H291Q283 524 275 501T260 457T245 416T228 373L176 238ZM260 630H327L571 0H495L426
180H156L87 0H12L260 630Z" />
<glyph unicode="&#xc3;" glyph-name="Atilde" horiz-adv-x="583" d="M143 712Q143 756 163 786T230 817Q251 817 267 810T298 793T326 776T357 768Q380 768 389 784T401 820H446Q446 800 441 782T425 749T399 726T362 717Q340 717 322 724T289 741T260 757T233
765Q209 765 200 750T188 712H143ZM176 238H404L354 373Q340 408 325 452T293 550H291Q283 524 275 501T260 457T245 416T228 373L176 238ZM260 630H327L571 0H495L426 180H156L87 0H12L260 630Z" />
<glyph unicode="&#xc4;" glyph-name="Adieresis" horiz-adv-x="583" d="M164 763Q164 783 177 796T209 810Q227 810 240 797T254 763Q254 743 241 730T209 716Q190 716 177 729T164 763ZM332 763Q332 783 345 796T377 810Q395 810 408 797T422 763Q422 743 409
730T377 716Q358 716 345 729T332 763ZM176 238H404L354 373Q340 408 325 452T293 550H291Q283 524 275 501T260 457T245 416T228 373L176 238ZM260 630H327L571 0H495L426 180H156L87 0H12L260 630Z" />
<glyph unicode="&#xc5;" glyph-name="Aring" horiz-adv-x="583" d="M198 760Q198 803 226 823T293 843Q333 843 360 823T388 760Q388 738 380 723T359 697T329 682T293 677Q255 677 227 697T198 760ZM242 760Q242 735 255 721T293 707Q317 707 330 721T344 760Q344
784 330 798T293 812Q270 812 256 798T242 760ZM176 238H404L354 373Q340 408 325 452T293 550H291Q283 524 275 501T260 457T245 416T228 373L176 238ZM260 630H327L571 0H495L426 180H156L87 0H12L260 630Z" />
<glyph unicode="&#xc6;" glyph-name="AE" horiz-adv-x="778" d="M9 0L333 630H731V571H448V355H705V296H448V59H734V0H378V184H182L91 0H9ZM378 577L208 240H378V577Z" />
<glyph unicode="&#xc7;" glyph-name="Ccedilla" horiz-adv-x="544" d="M348 50Q397 50 429 59T491 82L508 24Q476 9 439 1T348 -9L331 -47Q359 -48 378 -55T410 -73T428 -97T434 -126Q434 -168 400 -191T313 -214Q290 -214 271 -211T239 -202L250 -165Q263 -170
277 -172T306 -174Q344 -174 361 -162T379 -128Q379 -118 375 -109T360 -93T328 -82T273 -78L307 -7Q250 -2 202 21T117 84T61 182T40 314Q40 391 62 451T125 553T221 616T341 638Q400 638 439 629T511 602L494 546Q459 563 427 571T352 579Q305 579 263 564T188
517T137 435T117 313Q117 240 136 190T188 109T262 64T348 50Z" />
<glyph unicode="&#xc8;" glyph-name="Egrave" horiz-adv-x="497" d="M80 630H450V571H152V355H424V296H152V59H453V0H80V630ZM180 834H263L348 710H291L180 834Z" />
<glyph unicode="&#xc9;" glyph-name="Eacute" horiz-adv-x="494" d="M80 630H450V571H152V355H424V296H152V59H453V0H80V630ZM257 710H200L285 834H368L257 710Z" />
<glyph unicode="&#xca;" glyph-name="Ecircumflex" horiz-adv-x="494" d="M80 630H450V571H152V355H424V296H152V59H453V0H80V630ZM234 844H293L418 710H348L263 801L178 710H112L234 844Z" />
<glyph unicode="&#xcb;" glyph-name="Edieresis" horiz-adv-x="494" d="M80 630H450V571H152V355H424V296H152V59H453V0H80V630ZM139 763Q139 783 152 796T184 810Q202 810 215 797T229 763Q229 743 216 730T184 716Q165 716 152 729T139 763ZM307 763Q307 783
320 796T352 810Q370 810 383 797T397 763Q397 743 384 730T352 716Q333 716 320 729T307 763Z" />
<glyph unicode="&#xcc;" glyph-name="Igrave" horiz-adv-x="232" d="M152 630V0H80V630H152ZM-21 834H62L147 710H90L-21 834Z" />
<glyph unicode="&#xcd;" glyph-name="Iacute" horiz-adv-x="231" d="M152 630V0H80V630H152ZM141 710H84L169 834H252L141 710Z" />
<glyph unicode="&#xce;" glyph-name="Icircumflex" horiz-adv-x="231" d="M152 630V0H80V630H152ZM87 844H146L271 710H201L116 801L31 710H-35L87 844Z" />
<glyph unicode="&#xcf;" glyph-name="Idieresis" horiz-adv-x="231" d="M152 630V0H80V630H152ZM-14 763Q-14 783 -1 796T31 810Q49 810 62 797T76 763Q76 743 63 730T31 716Q12 716 -1 729T-14 763ZM154 763Q154 783 167 796T199 810Q217 810 230 797T244 763Q244
743 231 730T199 716Q180 716 167 729T154 763Z" />
<glyph unicode="&#xd0;" glyph-name="Eth" d="M305 630Q369 630 424 611T520 555T583 461T606 329Q606 238 579 175T506 73T399 17T270 0H110V303H30V355H110V630H305ZM330 355V303H182V59H261Q311 59 359 70T445 112T506 195T529 329Q529 387 512 432T463 508T386
555T287 571H182V355H330Z" />
<glyph unicode="&#xd1;" glyph-name="Ntilde" horiz-adv-x="642" d="M80 630H190L415 216L491 69H494L493 236V630H563V0H453L235 396L151 570H149L150 376V0H80V630ZM181 712Q181 756 201 786T268 817Q290 817 306 810T336 793T364 776T395 768Q418 768 427 784T439
820H484Q484 800 479 782T464 749T438 726T401 717Q378 717 360 724T327 741T298 757T271 765Q248 765 238 750T226 712H181Z" />
<glyph unicode="&#xd2;" glyph-name="Ograve" horiz-adv-x="666" d="M335 638Q395 638 447 618T538 558T598 457T620 315Q620 236 598 176T536 74T444 12T331 -9Q271 -9 219 11T128 72T68 173T46 315Q46 394 68 454T130 555T221 617T335 638ZM123 315Q123 247
140 197T186 114T253 65T335 49Q378 49 415 65T481 114T526 197T543 315Q543 384 526 434T480 517T413 564T331 580Q288 580 251 564T185 515T140 432T123 315ZM230 834H313L398 710H341L230 834Z" />
<glyph unicode="&#xd3;" glyph-name="Oacute" horiz-adv-x="666" d="M335 638Q395 638 447 618T538 558T598 457T620 315Q620 236 598 176T536 74T444 12T331 -9Q271 -9 219 11T128 72T68 173T46 315Q46 394 68 454T130 555T221 617T335 638ZM123 315Q123 247
140 197T186 114T253 65T335 49Q378 49 415 65T481 114T526 197T543 315Q543 384 526 434T480 517T413 564T331 580Q288 580 251 564T185 515T140 432T123 315ZM317 710H260L345 834H428L317 710Z" />
<glyph unicode="&#xd4;" glyph-name="Ocircumflex" horiz-adv-x="666" d="M335 638Q395 638 447 618T538 558T598 457T620 315Q620 236 598 176T536 74T444 12T331 -9Q271 -9 219 11T128 72T68 173T46 315Q46 394 68 454T130 555T221 617T335 638ZM123 315Q123
247 140 197T186 114T253 65T335 49Q378 49 415 65T481 114T526 197T543 315Q543 384 526 434T480 517T413 564T331 580Q288 580 251 564T185 515T140 432T123 315ZM304 844H363L488 710H418L333 801L248 710H182L304 844Z" />
<glyph unicode="&#xd5;" glyph-name="Otilde" horiz-adv-x="666" d="M335 638Q395 638 447 618T538 558T598 457T620 315Q620 236 598 176T536 74T444 12T331 -9Q271 -9 219 11T128 72T68 173T46 315Q46 394 68 454T130 555T221 617T335 638ZM123 315Q123 247
140 197T186 114T253 65T335 49Q378 49 415 65T481 114T526 197T543 315Q543 384 526 434T480 517T413 564T331 580Q288 580 251 564T185 515T140 432T123 315ZM180 713Q180 757 200 787T267 818Q288 818 304 811T335 794T363 777T394 769Q417 769 426 784T438
821H483Q483 801 478 783T462 750T436 726T399 717Q377 717 359 724T326 741T297 758T270 766Q246 766 237 751T225 713H180Z" />
<glyph unicode="&#xd6;" glyph-name="Odieresis" horiz-adv-x="666" d="M335 638Q395 638 447 618T538 558T598 457T620 315Q620 236 598 176T536 74T444 12T331 -9Q271 -9 219 11T128 72T68 173T46 315Q46 394 68 454T130 555T221 617T335 638ZM123 315Q123 247
140 197T186 114T253 65T335 49Q378 49 415 65T481 114T526 197T543 315Q543 384 526 434T480 517T413 564T331 580Q288 580 251 564T185 515T140 432T123 315ZM204 763Q204 783 217 796T249 810Q267 810 280 797T294 763Q294 743 281 730T249 716Q230 716 217
729T204 763ZM372 763Q372 783 385 796T417 810Q435 810 448 797T462 763Q462 743 449 730T417 716Q398 716 385 729T372 763Z" />
<glyph unicode="&#xd7;" glyph-name="multiply" horiz-adv-x="400" d="M40 179L164 303L40 426L76 462L200 339L323 462L359 426L236 303L359 179L323 143L200 267L76 143L40 179Z" />
<glyph unicode="&#xd8;" glyph-name="Oslash" horiz-adv-x="666" d="M494 750L531 737L478 603Q542 567 581 496T620 315Q620 236 598 176T536 74T444 12T331 -9Q305 -9 281 -5T234 6L172 -149L135 -134L196 21Q128 56 87 128T46 315Q46 394 68 454T130 555T221
617T335 638Q362 638 389 634T441 619L494 750ZM123 315Q123 227 150 169T223 82L416 563Q376 580 331 580Q288 580 251 564T185 515T140 432T123 315ZM335 49Q378 49 415 65T481 114T526 197T543 315Q543 400 518 456T451 543L259 63Q296 49 335 49Z" />
<glyph unicode="&#xd9;" glyph-name="Ugrave" horiz-adv-x="626" d="M75 630H147V253Q147 143 187 97T316 50Q359 50 390 64T440 103T469 163T479 241V630H551V244Q551 114 490 53T316 -9Q203 -9 139 52T75 249V630ZM213 834H296L381 710H324L213 834Z" />
<glyph unicode="&#xda;" glyph-name="Uacute" horiz-adv-x="626" d="M75 630H147V253Q147 143 187 97T316 50Q359 50 390 64T440 103T469 163T479 241V630H551V244Q551 114 490 53T316 -9Q203 -9 139 52T75 249V630ZM302 710H245L330 834H413L302 710Z" />
<glyph unicode="&#xdb;" glyph-name="Ucircumflex" horiz-adv-x="626" d="M75 630H147V253Q147 143 187 97T316 50Q359 50 390 64T440 103T469 163T479 241V630H551V244Q551 114 490 53T316 -9Q203 -9 139 52T75 249V630ZM287 844H346L471 710H401L316 801L231
710H165L287 844Z" />
<glyph unicode="&#xdc;" glyph-name="Udieresis" horiz-adv-x="626" d="M75 630H147V253Q147 143 187 97T316 50Q359 50 390 64T440 103T469 163T479 241V630H551V244Q551 114 490 53T316 -9Q203 -9 139 52T75 249V630ZM187 763Q187 783 200 796T232 810Q250 810
263 797T277 763Q277 743 264 730T232 716Q213 716 200 729T187 763ZM355 763Q355 783 368 796T400 810Q418 810 431 797T445 763Q445 743 432 730T400 716Q381 716 368 729T355 763Z" />
<glyph unicode="&#xdd;" glyph-name="Yacute" horiz-adv-x="495" d="M80 630L248 332L417 630H497L281 264V0H209V264L-1 630H80ZM257 710H200L285 834H368L257 710Z" />
<glyph unicode="&#xde;" glyph-name="Thorn" horiz-adv-x="493" d="M72 630H138V497Q158 503 180 506T228 510Q274 510 314 497T385 460T432 400T449 321Q449 268 431 229T381 163T304 124T209 111Q195 111 175 112T138 116V0H72V630ZM138 173Q155 169 171 168T211
166Q287 166 333 204T379 312Q379 348 366 375T331 420T280 446T219 455Q196 455 174 452T138 444V173Z" />
<glyph unicode="&#xdf;" glyph-name="germandbls" horiz-adv-x="570" d="M78 0V480Q78 532 91 576T131 652T199 702T299 720Q335 720 367 710T424 679T464 628T479 557Q479 533 473 510T460 473Q401 462 377 440T352 383Q352 351 370 331T418 289Q437 274 455
259T487 226T509 187T518 138Q518 73 473 32T343 -9Q316 -9 283 -4T231 12L247 63Q268 55 291 50T339 45Q393 45 420 70T447 136Q447 152 442 165T427 190T403 214T370 240Q328 272 305 302T282 380Q282 425 313 460T404 510Q411 527 411 556Q411 609 379 637T296
665Q262 665 234 655T187 621T156 559T145 466V0H78Z" />
<glyph unicode="&#xe0;" glyph-name="agrave" horiz-adv-x="474" d="M69 428Q116 453 155 464T243 476Q279 476 309 468T362 439T397 387T410 306V0H356L345 57H343Q313 22 275 7T190 -9Q157 -9 129 0T80 28T48 71T36 127Q36 164 51 192T93 239T159 267T245 277H340V312Q340
372 312 395T238 419Q210 419 175 411T96 378L69 428ZM340 226L262 225Q179 223 144 196T109 130Q109 83 138 64T207 45Q242 45 278 61T340 116V226ZM151 690H234L309 556H252L151 690Z" />
<glyph unicode="&#xe1;" glyph-name="aacute" horiz-adv-x="474" d="M69 428Q116 453 155 464T243 476Q279 476 309 468T362 439T397 387T410 306V0H356L345 57H343Q313 22 275 7T190 -9Q157 -9 129 0T80 28T48 71T36 127Q36 164 51 192T93 239T159 267T245 277H340V312Q340
372 312 395T238 419Q210 419 175 411T96 378L69 428ZM340 226L262 225Q179 223 144 196T109 130Q109 83 138 64T207 45Q242 45 278 61T340 116V226ZM244 556H187L262 690H345L244 556Z" />
<glyph unicode="&#xe2;" glyph-name="acircumflex" horiz-adv-x="474" d="M69 428Q116 453 155 464T243 476Q279 476 309 468T362 439T397 387T410 306V0H356L345 57H343Q313 22 275 7T190 -9Q157 -9 129 0T80 28T48 71T36 127Q36 164 51 192T93 239T159 267T245
277H340V312Q340 372 312 395T238 419Q210 419 175 411T96 378L69 428ZM340 226L262 225Q179 223 144 196T109 130Q109 83 138 64T207 45Q242 45 278 61T340 116V226ZM396 556H330L252 647L174 556H105L223 690H282L396 556Z" />
<glyph unicode="&#xe3;" glyph-name="atilde" horiz-adv-x="474" d="M69 428Q116 453 155 464T243 476Q279 476 309 468T362 439T397 387T410 306V0H356L345 57H343Q313 22 275 7T190 -9Q157 -9 129 0T80 28T48 71T36 127Q36 164 51 192T93 239T159 267T245 277H340V312Q340
372 312 395T238 419Q210 419 175 411T96 378L69 428ZM340 226L262 225Q179 223 144 196T109 130Q109 83 138 64T207 45Q242 45 278 61T340 116V226ZM88 558Q88 605 108 634T174 664Q195 664 212 656T244 639T273 621T303 613Q344 613 346 667H390Q390 620 370
591T308 562Q286 562 268 570T233 587T203 604T176 612Q156 612 145 599T133 558H88Z" />
<glyph unicode="&#xe4;" glyph-name="adieresis" horiz-adv-x="474" d="M69 428Q116 453 155 464T243 476Q279 476 309 468T362 439T397 387T410 306V0H356L345 57H343Q313 22 275 7T190 -9Q157 -9 129 0T80 28T48 71T36 127Q36 164 51 192T93 239T159 267T245
277H340V312Q340 372 312 395T238 419Q210 419 175 411T96 378L69 428ZM340 226L262 225Q179 223 144 196T109 130Q109 83 138 64T207 45Q242 45 278 61T340 116V226ZM117 623Q117 642 130 655T162 669Q181 669 194 656T207 623Q207 602 194 589T162 575Q143 575
130 588T117 623ZM285 623Q285 642 298 655T330 669Q349 669 362 656T375 623Q375 602 362 589T330 575Q311 575 298 588T285 623Z" />
<glyph unicode="&#xe5;" glyph-name="aring" horiz-adv-x="474" d="M69 428Q116 453 155 464T243 476Q279 476 309 468T362 439T397 387T410 306V0H356L345 57H343Q313 22 275 7T190 -9Q157 -9 129 0T80 28T48 71T36 127Q36 164 51 192T93 239T159 267T245 277H340V312Q340
372 312 395T238 419Q210 419 175 411T96 378L69 428ZM340 226L262 225Q179 223 144 196T109 130Q109 83 138 64T207 45Q242 45 278 61T340 116V226ZM152 623Q152 665 179 685T244 706Q282 706 308 686T335 623Q335 602 328 587T307 561T278 545T244 540Q208 540
180 561T152 623ZM195 623Q195 600 207 585T244 570Q268 570 280 585T293 623Q293 646 280 660T244 675Q220 675 208 661T195 623Z" />
<glyph unicode="&#xe6;" glyph-name="ae" horiz-adv-x="778" d="M739 227H408V218Q408 135 451 91T573 46Q608 46 638 51T700 70L715 18Q687 6 650 -1T570 -9Q510 -9 461 12T381 79H379Q348 36 303 14T197 -9Q162 -9 133 0T82 28T48 71T36 127Q36 164 51 192T93
239T159 267T245 277H341V312Q341 372 313 395T238 419Q210 419 175 411T96 378L69 428Q116 453 155 464T243 476Q294 476 330 458T388 397H390Q419 438 459 457T550 476Q593 476 628 461T687 419T725 354T739 268V227ZM109 130Q109 83 138 64T212 45Q250 45 290
64T357 126Q349 148 345 172T340 226L262 225Q179 223 144 196T109 130ZM666 278Q666 306 660 332T639 378T603 410T548 423Q490 423 453 385T409 278H666Z" />
<glyph unicode="&#xe7;" glyph-name="ccedilla" horiz-adv-x="434" d="M284 44Q316 44 341 51T389 69L404 18Q353 -8 285 -9L265 -48Q310 -50 334 -69T358 -118Q358 -139 349 -154T325 -179T289 -195T247 -200Q224 -200 205 -197T173 -188L184 -150Q212 -160 240
-160Q269 -160 286 -151T303 -120Q303 -100 282 -89T207 -78L241 -6Q199 -1 162 16T98 64T56 136T40 234Q40 290 57 335T106 411T181 459T276 476Q307 476 336 472T402 451L386 397Q360 411 336 416T285 422Q207 422 160 373T112 237Q112 182 127 145T166 86T221
54T284 44Z" />
<glyph unicode="&#xe8;" glyph-name="egrave" horiz-adv-x="504" d="M458 230H122V221Q122 138 166 92T289 46Q324 46 354 51T416 70L431 18Q404 6 366 -1T286 -9Q237 -9 194 5T119 48T68 124T49 234Q49 289 64 334T109 410T178 459T269 476Q312 476 346 462T406
420T444 355T458 271V230ZM385 282Q385 310 379 335T358 380T320 411T265 423Q207 423 170 385T124 281L385 282ZM250 690L325 556H268L167 690H250Z" />
<glyph unicode="&#xe9;" glyph-name="eacute" horiz-adv-x="504" d="M458 230H122V221Q122 138 166 92T289 46Q324 46 354 51T416 70L431 18Q404 6 366 -1T286 -9Q237 -9 194 5T119 48T68 124T49 234Q49 289 64 334T109 410T178 459T269 476Q312 476 346 462T406
420T444 355T458 271V230ZM385 282Q385 310 379 335T358 380T320 411T265 423Q207 423 170 385T124 281L385 282ZM360 690L259 556H202L277 690H360Z" />
<glyph unicode="&#xea;" glyph-name="ecircumflex" horiz-adv-x="504" d="M458 230H122V221Q122 138 166 92T289 46Q324 46 354 51T416 70L431 18Q404 6 366 -1T286 -9Q237 -9 194 5T119 48T68 124T49 234Q49 289 64 334T109 410T178 459T269 476Q312 476 346
462T406 420T444 355T458 271V230ZM385 282Q385 310 379 335T358 380T320 411T265 423Q207 423 170 385T124 281L385 282ZM346 556L268 647L190 556H121L239 690H298L412 556H346Z" />
<glyph unicode="&#xeb;" glyph-name="edieresis" horiz-adv-x="504" d="M458 230H122V221Q122 138 166 92T289 46Q324 46 354 51T416 70L431 18Q404 6 366 -1T286 -9Q237 -9 194 5T119 48T68 124T49 234Q49 289 64 334T109 410T178 459T269 476Q312 476 346 462T406
420T444 355T458 271V230ZM385 282Q385 310 379 335T358 380T320 411T265 423Q207 423 170 385T124 281L385 282ZM141 623Q141 642 154 655T186 669Q204 669 217 656T231 623Q231 602 218 589T186 575Q167 575 154 588T141 623ZM309 623Q309 642 322 655T354 669Q372
669 385 656T399 623Q399 602 386 589T354 575Q335 575 322 588T309 623Z" />
<glyph unicode="&#xec;" glyph-name="igrave" horiz-adv-x="230" d="M80 0V470H150V0H80ZM-8 690H75L150 556H93L-8 690Z" />
<glyph unicode="&#xed;" glyph-name="iacute" horiz-adv-x="230" d="M80 0V470H150V0H80ZM137 556H80L155 690H238L137 556Z" />
<glyph unicode="&#xee;" glyph-name="icircumflex" horiz-adv-x="230" d="M80 0V470H150V0H80ZM257 556H191L115 646L36 556H-33L85 690H144L257 556Z" />
<glyph unicode="&#xef;" glyph-name="idieresis" horiz-adv-x="230" d="M80 0V470H150V0H80ZM-17 623Q-17 642 -4 655T28 669Q47 669 60 656T73 623Q73 602 60 589T28 575Q9 575 -4 588T-17 623ZM151 623Q151 642 164 655T196 669Q215 669 228 656T241 623Q241
602 228 589T196 575Q177 575 164 588T151 623Z" />
<glyph unicode="&#xf0;" glyph-name="eth" horiz-adv-x="514" d="M244 457Q285 457 322 439T384 388H387Q381 415 369 443T341 496T305 544T265 581L149 522L129 557L230 607Q208 621 181 633T125 655L152 702Q187 692 225 674T295 631L390 680L410 645L328 604Q352
580 377 546T422 469T455 371T468 252Q468 195 454 147T413 65T345 11T253 -9Q216 -9 178 4T110 46T60 118T40 224Q40 279 56 322T99 396T164 441T244 457ZM254 402Q229 402 204 393T158 364T124 310T111 227Q111 175 124 140T158 84T205 55T257 46Q287 46 313
59T358 97T387 154T398 228Q398 269 386 301T354 355T308 390T254 402Z" />
<glyph unicode="&#xf1;" glyph-name="ntilde" horiz-adv-x="515" d="M137 0H67V470H120L131 405Q166 438 204 457T293 476Q365 476 406 436T447 324V0H377V311Q377 358 353 388T273 419Q238 419 202 402T137 352V0ZM110 558Q110 605 130 634T196 664Q217 664 233
656T265 639T294 621T324 613Q366 613 368 667H412Q412 620 392 591T330 562Q308 562 290 570T255 587T225 604T198 612Q155 612 154 558H110Z" />
<glyph unicode="&#xf2;" glyph-name="ograve" horiz-adv-x="517" d="M478 240Q478 181 461 135T414 56T344 8T257 -9Q210 -9 170 6T101 52T55 127T38 230Q38 289 55 335T103 412T173 460T261 476Q307 476 347 461T416 416T461 342T478 240ZM405 235Q405 284 393
319T360 377T313 410T258 421Q230 421 204 411T157 379T124 322T111 235Q111 184 123 148T157 90T205 57T260 46Q288 46 314 55T360 87T393 146T405 235ZM167 690H250L325 556H268L167 690Z" />
<glyph unicode="&#xf3;" glyph-name="oacute" horiz-adv-x="517" d="M478 240Q478 181 461 135T414 56T344 8T257 -9Q210 -9 170 6T101 52T55 127T38 230Q38 289 55 335T103 412T173 460T261 476Q307 476 347 461T416 416T461 342T478 240ZM405 235Q405 284 393
319T360 377T313 410T258 421Q230 421 204 411T157 379T124 322T111 235Q111 184 123 148T157 90T205 57T260 46Q288 46 314 55T360 87T393 146T405 235ZM255 556H198L273 690H356L255 556Z" />
<glyph unicode="&#xf4;" glyph-name="ocircumflex" horiz-adv-x="517" d="M478 240Q478 181 461 135T414 56T344 8T257 -9Q210 -9 170 6T101 52T55 127T38 230Q38 289 55 335T103 412T173 460T261 476Q307 476 347 461T416 416T461 342T478 240ZM405 235Q405 284
393 319T360 377T313 410T258 421Q230 421 204 411T157 379T124 322T111 235Q111 184 123 148T157 90T205 57T260 46Q288 46 314 55T360 87T393 146T405 235ZM402 556H336L259 647L180 556H112L229 690H288L402 556Z" />
<glyph unicode="&#xf5;" glyph-name="otilde" horiz-adv-x="517" d="M478 240Q478 181 461 135T414 56T344 8T257 -9Q210 -9 170 6T101 52T55 127T38 230Q38 289 55 335T103 412T173 460T261 476Q307 476 347 461T416 416T461 342T478 240ZM405 235Q405 284 393
319T360 377T313 410T258 421Q230 421 204 411T157 379T124 322T111 235Q111 184 123 148T157 90T205 57T260 46Q288 46 314 55T360 87T393 146T405 235ZM109 558Q109 605 129 634T195 664Q216 664 232 656T264 639T293 621T323 613Q365 613 367 667H411Q411 620
391 591T329 562Q307 562 289 570T254 587T224 604T197 612Q154 612 153 558H109Z" />
<glyph unicode="&#xf6;" glyph-name="odieresis" horiz-adv-x="517" d="M478 240Q478 181 461 135T414 56T344 8T257 -9Q210 -9 170 6T101 52T55 127T38 230Q38 289 55 335T103 412T173 460T261 476Q307 476 347 461T416 416T461 342T478 240ZM405 235Q405 284
393 319T360 377T313 410T258 421Q230 421 204 411T157 379T124 322T111 235Q111 184 123 148T157 90T205 57T260 46Q288 46 314 55T360 87T393 146T405 235ZM127 623Q127 642 140 655T172 669Q190 669 203 656T217 623Q217 602 204 589T172 575Q153 575 140 588T127
623ZM295 623Q295 642 308 655T340 669Q358 669 371 656T385 623Q385 602 372 589T340 575Q321 575 308 588T295 623Z" />
<glyph unicode="&#xf7;" glyph-name="divide" horiz-adv-x="533" d="M212 90Q212 112 227 127T264 143Q284 143 299 128T315 90Q315 66 300 51T264 36Q243 36 228 51T212 90ZM212 418Q212 440 227 455T264 471Q284 471 299 456T315 418Q315 394 300 379T264 364Q243
364 228 379T212 418ZM493 279V228H40V279H493Z" />
<glyph unicode="&#xf8;" glyph-name="oslash" horiz-adv-x="517" d="M356 569L393 560L360 455Q413 429 445 376T478 240Q478 181 461 135T414 56T344 8T257 -9Q233 -9 210 -4L183 -90L146 -80L174 6Q113 29 76 84T38 230Q38 289 55 335T103 412T173 460T261 476Q292
476 324 468L356 569ZM258 421Q230 421 204 411T157 379T124 322T111 235Q111 163 134 122T193 62L304 413Q282 421 258 421ZM405 235Q405 296 386 335T338 395L229 49Q244 46 260 46Q288 46 314 55T360 87T393 146T405 235Z" />
<glyph unicode="&#xf9;" glyph-name="ugrave" horiz-adv-x="521" d="M383 470H453V0H400L390 59H387Q361 31 322 11T231 -9Q158 -9 113 31T68 156V470H138V167Q138 132 146 109T168 72T202 53T245 47Q288 47 323 66T383 115V470ZM157 690H240L315 556H258L157 690Z" />
<glyph unicode="&#xfa;" glyph-name="uacute" horiz-adv-x="521" d="M383 470H453V0H400L390 59H387Q361 31 322 11T231 -9Q158 -9 113 31T68 156V470H138V167Q138 132 146 109T168 72T202 53T245 47Q288 47 323 66T383 115V470ZM260 556H203L278 690H361L260 556Z" />
<glyph unicode="&#xfb;" glyph-name="ucircumflex" horiz-adv-x="521" d="M383 470H453V0H400L390 59H387Q361 31 322 11T231 -9Q158 -9 113 31T68 156V470H138V167Q138 132 146 109T168 72T202 53T245 47Q288 47 323 66T383 115V470ZM403 556H337L260 647L181
556H113L230 690H289L403 556Z" />
<glyph unicode="&#xfc;" glyph-name="udieresis" horiz-adv-x="521" d="M383 470H453V0H400L390 59H387Q361 31 322 11T231 -9Q158 -9 113 31T68 156V470H138V167Q138 132 146 109T168 72T202 53T245 47Q288 47 323 66T383 115V470ZM131 623Q131 642 144 655T176
669Q195 669 208 656T221 623Q221 602 208 589T176 575Q157 575 144 588T131 623ZM299 623Q299 642 312 655T344 669Q363 669 376 656T389 623Q389 602 376 589T344 575Q325 575 312 588T299 623Z" />
<glyph unicode="&#xfd;" glyph-name="yacute" horiz-adv-x="441" d="M9 470H83L194 179L229 70H231L263 179L364 470H434L253 -40Q224 -121 180 -167T76 -237L46 -183Q95 -163 131 -128T190 -27L199 0L9 470ZM226 556H169L244 690H327L226 556Z" />
<glyph unicode="&#xfe;" glyph-name="thorn" horiz-adv-x="517" d="M477 237Q477 181 461 136T416 58T349 9T268 -9Q225 -9 194 -1T136 29V-160H69V710H136V414Q167 447 204 461T282 476Q372 476 424 414T477 237ZM405 236Q405 321 368 370T264 419Q226 419 194
402T136 355V92Q156 69 185 57T245 45Q276 45 305 56T356 91T391 150T405 236Z" />
<glyph unicode="&#xff;" glyph-name="ydieresis" horiz-adv-x="441" d="M9 470H83L193 179L229 69H231L264 179L364 470H434L253 -40Q224 -121 180 -167T76 -237L46 -183Q95 -163 131 -128T191 -27L200 0L9 470ZM94 623Q94 642 107 655T139 669Q157 669 170 656T184
623Q184 602 171 589T139 575Q120 575 107 588T94 623ZM262 623Q262 642 275 655T307 669Q325 669 338 656T352 623Q352 602 339 589T307 575Q288 575 275 588T262 623Z" />
<glyph unicode="&#x2013;" glyph-name="endash" horiz-adv-x="521" d="M467 249V198H54V249H467Z" />
<glyph unicode="&#x2014;" glyph-name="emdash" horiz-adv-x="934" d="M880 248V198H54V248H880Z" />
<glyph unicode="&#x2018;" glyph-name="quoteleft" horiz-adv-x="183" d="M92 616Q113 613 125 598T138 560Q138 539 125 524T87 508Q77 508 67 511T47 524T32 550T26 590Q26 640 56 680T130 744L154 710Q126 696 106 672T81 618L92 616Z" />
<glyph unicode="&#x2019;" glyph-name="quoteright" horiz-adv-x="183" d="M90 624Q69 627 57 642T44 680Q44 701 58 716T96 732Q106 732 116 729T136 716T150 691T156 651Q156 601 126 560T53 496L28 530Q57 544 76 568T102 622L90 624Z" />
<glyph unicode="&#x201a;" glyph-name="quotesinglbase" horiz-adv-x="190" d="M84 -7Q63 -4 51 11T38 49Q38 70 52 85T90 101Q100 101 110 98T130 85T144 60T150 20Q150 -30 120 -71T46 -135L22 -101Q50 -87 70 -63T95 -9L84 -7Z" />
<glyph unicode="&#x201c;" glyph-name="quotedblleft" horiz-adv-x="358" d="M92 616Q113 613 125 598T138 560Q138 539 125 524T87 508Q77 508 67 511T47 524T32 550T26 590Q26 640 56 680T130 744L154 710Q126 696 106 672T81 618L92 616ZM268 616Q289 613 301
598T314 560Q314 539 301 524T263 508Q253 508 243 511T223 524T208 550T202 590Q202 640 232 680T305 744L330 710Q301 696 282 672T256 618L268 616Z" />
<glyph unicode="&#x201d;" glyph-name="quotedblright" horiz-adv-x="358" d="M90 624Q69 627 57 642T44 680Q44 701 58 716T96 732Q106 732 116 729T136 716T150 692T156 652Q156 602 126 561T53 496L28 530Q57 545 76 568T102 622L90 624ZM266 624Q245 627 233
642T220 680Q220 701 234 716T272 732Q282 732 292 729T312 716T326 692T332 652Q332 602 302 561T228 496L204 530Q232 545 252 568T277 622L266 624Z" />
<glyph unicode="&#x201e;" glyph-name="quotedblbase" horiz-adv-x="372" d="M84 -7Q63 -4 51 11T38 49Q38 70 52 85T90 101Q100 101 110 98T130 85T144 60T150 20Q150 -30 120 -71T46 -135L22 -101Q50 -87 70 -63T95 -9L84 -7ZM266 -7Q245 -4 233 11T220 49Q220
70 234 85T272 101Q282 101 292 98T312 85T326 60T332 20Q332 -30 302 -71T229 -135L204 -101Q233 -87 252 -63T278 -9L266 -7Z" />
<glyph unicode="&#x2022;" glyph-name="bullet" horiz-adv-x="343" d="M60 266Q60 290 69 310T93 346T128 369T172 378Q195 378 215 370T251 346T275 311T284 266Q284 242 275 222T251 186T216 162T172 153Q149 153 129 161T93 185T69 221T60 266Z" />
<glyph unicode="&#x2039;" glyph-name="guilsinglleft" horiz-adv-x="285" d="M186 76L38 236L186 397H252L116 236L252 76H186Z" />
<glyph unicode="&#x203a;" glyph-name="guilsinglright" horiz-adv-x="283" d="M34 76L170 236L34 397H100L248 236L100 76H34Z" />
</font>
</defs>
</svg>
